找回密码

查看: 1213|回复: 0

[动作] 异形魔怪5:血脉 Tremors.5.Bloodlines.2015.1080p.BluRay.x264-ROVERS 7.70GB

[复制链接]
蓝光币
2048
发表于 2019-7-9 15:32:07 | 显示全部楼层 |阅读模式


◎译  名 异形魔怪5:血脉
◎片  名 Tremors 5: Bloodline
◎年  代 2015
◎产  地 美国
◎类  别 行动 / 科幻 / 可骇
◎语  言 英语
◎上映日期 2015-10-06
◎IMDb评分  5.3/10 from 5752 users
◎IMDb链接  http://www.imdb.com/title/tt4180514
◎豆瓣评分 5.2/10 from 1121 users
◎豆瓣链接 https://movie.douban.com/subject/26582064/
◎片  长 99分钟
◎导  演 唐·迈克尔·保罗 Don Michael Paul
◎编  剧 John Whelpley
◎主  演 Michael Gross
      杰米·肯尼迪 Jamie Kennedy
      Ernest Ndhlovu
      Lawrence Joffe
      Zak Hendrikz
      娜塔莉·贝克尔 Natalie Becker
      Emmanuel Castis
      布兰登·奥雷 Brandon Auret
      Daniel Janks
      Jarrod Pinto
      Rea Rangaka
      Ian Roberts
      Sello Sebotsane
      Pearl Thusi

◎标  签 怪兽 | 科幻 | 可骇 | 异形魔怪 | 美国 | 笑剧 | 惊悚 | 美国电影
◎简  介  
  故事講述求生專家柏特蓋默受雇到南非獵補兇猛的食人野獸,他有夥伴崔維斯威克的協助,將與怪獸開展一場生死對決大戰,但是這些遭到進化影響的怪獸,完全超乎他們本来的想像。
  1. Video
  2. ID                                       : 1
  3. Format                                   : AVC
  4. Format/Info                              : Advanced Video Codec
  5. Format profile                           : [email protected]
  6. Format settings, CABAC                   : Yes
  7. Format settings, ReFrames                : 4 frames
  8. Codec ID                                 : V_MPEG4/ISO/AVC
  9. Duration                                 : 1h 39mn
  10. Bit rate                                 : 9 551 Kbps
  11. Width                                    : 1 920 pixels
  12. Height                                   : 1 080 pixels
  13. Display aspect ratio                     : 16:9
  14. Frame rate mode                          : Constant
  15. Frame rate                               : 23.976 fps
  16. Color space                              : YUV
  17. Chroma subsampling                       : 4:2:0
  18. Bit depth                                : 8 bits
  19. Scan type                                : Progressive
  20. Bits/(Pixel*Frame)                       : 0.192
  21. Stream size                              : 6.45 GiB (84%)
  22. Writing library                          : x264 core 148 r2597 e86f3a1
  23. Encoding settings                        : cabac=1 / ref=4 / deblock=1:0:0 / analyse=0x3:0x133 / me=umh / subme=7 / psy=1 / psy_rd=1.00:0.00 / mixed_ref=1 / me_range=16 / chroma_me=1 / trellis=1 / 8x8dct=1 / cqm=0 / deadzone=21,11 / fast_pskip=0 / chroma_qp_offset=-2 / threads=18 / lookahead_threads=3 / sliced_threads=0 / nr=0 / decimate=1 / interlaced=0 / bluray_compat=0 / constrained_intra=0 / bframes=3 / b_pyramid=2 / b_adapt=1 / b_bias=0 / direct=1 / weightb=1 / open_gop=0 / weightp=2 / keyint=250 / keyint_min=23 / scenecut=40 / intra_refresh=0 / rc_lookahead=40 / rc=2pass / mbtree=1 / bitrate=9551 / ratetol=1.0 / qcomp=0.60 / qpmin=0 / qpmax=69 / qpstep=4 / cplxblur=20.0 / qblur=0.5 / ip_ratio=1.40 / aq=1:1.00
  24. Language                                 : English
  25. Default                                  : Yes
  26. Forced                                   : No
  27. DURATION                                 : 01:39:02.321000000
  28. NUMBER_OF_FRAMES                         : 142473
  29. NUMBER_OF_BYTES                          : 7090494881
  30. _STATISTICS_WRITING_APP                  : mkvmerge v8.3.0 (\'Over the Horizon\') 64bit
  31. _STATISTICS_WRITING_DATE_UTC             : 2015-10-07 19:49:32
  32. _STATISTICS_TAGS                         : BPS DURATION NUMBER_OF_FRAMES NUMBER_OF_BYTES

  33. Audio
  34. ID                                       : 2
  35. Format                                   : DTS
  36. Format/Info                              : Digital Theater Systems
  37. Mode                                     : 16
  38. Format settings, Endianness              : Big
  39. Codec ID                                 : A_DTS
  40. Duration                                 : 1h 39mn
  41. Bit rate mode                            : Constant
  42. Bit rate                                 : 1 509 Kbps
  43. Channel(s)                               : 6 channels
  44. Channel positions                        : Front: L C R, Side: L R, LFE
  45. Sampling rate                            : 48.0 KHz
  46. Bit depth                                : 24 bits
  47. Compression mode                         : Lossy
  48. Stream size                              : 1.04 GiB (14%)
  49. Language                                 : English
  50. Default                                  : Yes
  51. Forced                                   : No

  52. Menu
  53. 00:00:00.000                             : en:00:00:00.000
  54. 00:06:52.537                             : en:00:06:52.537
  55. 00:12:43.179                             : en:00:12:43.179
  56. 00:17:19.247                             : en:00:17:19.247
  57. 00:21:48.724                             : en:00:21:48.724
  58. 00:26:34.426                             : en:00:26:34.426
  59. 00:31:01.777                             : en:00:31:01.777
  60. 00:36:38.905                             : en:00:36:38.905
  61. 00:39:13.309                             : en:00:39:13.309
  62. 00:46:36.919                             : en:00:46:36.919
  63. 00:52:46.038                             : en:00:52:46.038
  64. 00:58:57.534                             : en:00:58:57.534
  65. 01:04:00.587                             : en:01:04:00.587
  66. 01:08:57.967                             : en:01:08:57.967
  67. 01:13:14.974                             : en:01:13:14.974
  68. 01:16:14.445                             : en:01:16:14.445
  69. 01:21:47.027                             : en:01:21:47.027
  70. 01:27:58.857                             : en:01:27:58.857
  71. 01:31:51.756                             : en:01:31:51.756
  72. 01:34:11.729                             : en:01:34:11.729
复制代码




                                       
                                       

                                       
                                       
                                       




回复

使用道具 举报

懒得打字嘛,点击右侧快捷回复 【右侧内容,后台自定义】
您需要登录后才可以回帖 登录 | 立即加入

本版积分规则

Archiver| |网站地图

Copyright © 2024 Comsenz Inc. Powered by 蓝光电影网

本站内容由用户自主分享和转载自互联网,转载目的在于传递更多信息,并不代表本网赞同其观点和对其真实性负责。

如有侵权、违反国家法律政策行为,请联系我们,我们会第一时间及时清除和处理!

举报反馈邮箱:4k1080.com@gmail.com

快速回复 返回顶部 返回列表