找回密码

查看: 1582|回复: 0

[剧情] 蛛魔 Itsy.Bitsy.2019.1080p.BluRay.REMUX.AVC.DTS-HD.MA.5.1-FGT 24.86GB

[复制链接]
蓝光币
2048
发表于 2019-9-29 20:44:40 | 显示全部楼层 |阅读模式


◎译  名 蛛魔
◎片  名 Itsy Bitsy
◎年  代 2020
◎产  地 美国
◎类  别 剧情 / 惊悚 / 可骇
◎语  言 英语
◎上映日期 2019-08-30(美国)
◎IMDb评分  8.1/10 from 15 users
◎IMDb链接  http://www.imdb.com/title/tt6895284
◎豆瓣评分 0/10 from 0 users
◎豆瓣链接 https://movie.douban.com/subject/27165955/
◎导  演 Micah Gallo
◎编  剧 Jason Alvino / 布莱恩·迪克 Bryan Dick / Micah Gallo
◎主  演 丹尼斯·克罗斯比 Denise Crosby
       布鲁斯·戴维森 Bruce Davison
       Matty Cardarople
       道阿·茂阿 Doua Moua
       克洛伊·佩兰 Chloe Perrin
       伊丽莎白·罗伯茨  Elizabeth Roberts
       阿曼·达博 Arman Darbo
       Grace Shen

◎标  签 可骇 | 惊悚 | 蜘蛛 | 2018 | 美国 | 剧情 | 2020
◎简  介  
  The film tells the story of single mother “Kara” (Elizabeth Roberts) who moves from New York to the quiet countryside with her two children for a job opportunity she can’t afford to turn down. The family moves into their humble new guesthouse. Kara begins her work as a private nurse to “Walter,” (Bruce Davison) a man stricken with multiple sclerosis and an appraiser of rare antiquities with a secretive past.
  Her teenage son, Jesse, (Arman Darbo) is unhappy about this most of all. Losing his friends and moving to the middle of nowhere hasn’t made his job of looking after his little sister, “Cambria,” (Chloe Perrin) any easier.
  Doom precedes them. “Akiba,” (Treva Etienne) a shady international associate of Walter’s, brings with him a mysterious relic of ancient origin. “Kara” encounters run in with a local sheriff played by genre veteran actor Denise Crosby.
  All too quickly they discover the relic contains more than just legends. Inside, waits a terrifying creature born of ancient darkness and pure instinct…a pre-historic cave Spider unlike the modern world has ever seen.
  1. Video
  2. ID                                       : 1
  3. Format                                   : AVC
  4. Format/Info                              : Advanced Video Codec
  5. Format profile                           : [email protected]
  6. Format settings                          : CABAC / 4 Ref Frames
  7. Format settings, CABAC                   : Yes
  8. Format settings, Reference frames        : 4 frames
  9. Codec ID                                 : V_MPEG4/ISO/AVC
  10. Duration                                 : 1 h 34 min
  11. Bit rate mode                            : Constant
  12. Bit rate                                 : 32.5 Mb/s
  13. Nominal bit rate                         : 35.0 Mb/s
  14. Width                                    : 1 920 pixels
  15. Height                                   : 1 080 pixels
  16. Display aspect ratio                     : 16:9
  17. Frame rate mode                          : Constant
  18. Frame rate                               : 23.976 (24000/1001) FPS
  19. Color space                              : YUV
  20. Chroma subsampling                       : 4:2:0
  21. Bit depth                                : 8 bits
  22. Scan type                                : Progressive
  23. Bits/(Pixel*Frame)                       : 0.654
  24. Stream size                              : 21.6 GiB (87%)
  25. Title                                    : Itsy.Bitsy.2019.1080p.BluRay.REMUX.AVC.DTS-HD.MA.5.1-FGT
  26. Language                                 : English
  27. Default                                  : No
  28. Forced                                   : No
  29. Audio #1
  30. ID                                       : 2
  31. Format                                   : DTS XLL
  32. Format/Info                              : Digital Theater Systems
  33. Commercial name                          : DTS-HD Master Audio
  34. Codec ID                                 : A_DTS
  35. Duration                                 : 1 h 34 min
  36. Bit rate mode                            : Variable
  37. Bit rate                                 : 2 975 kb/s
  38. Channel(s)                               : 6 channels
  39. Channel layout                           : C L R Ls Rs LFE
  40. Sampling rate                            : 48.0 kHz
  41. Frame rate                               : 93.750 FPS (512 SPF)
  42. Bit depth                                : 24 bits
  43. Compression mode                         : Lossless
  44. Stream size                              : 1.97 GiB (8%)
  45. Title                                    : Itsy.Bitsy.2019.1080p.BluRay.REMUX.AVC.DTS-HD.MA.5.1-FGT
  46. Language                                 : English
  47. Default                                  : Yes
  48. Forced                                   : No
  49. Audio #2
  50. ID                                       : 3
  51. Format                                   : DTS XLL
  52. Format/Info                              : Digital Theater Systems
  53. Commercial name                          : DTS-HD Master Audio
  54. Codec ID                                 : A_DTS
  55. Duration                                 : 1 h 34 min
  56. Bit rate mode                            : Variable
  57. Bit rate                                 : 1 588 kb/s
  58. Channel(s)                               : 2 channels
  59. Channel layout                           : L R
  60. Sampling rate                            : 48.0 kHz
  61. Frame rate                               : 93.750 FPS (512 SPF)
  62. Bit depth                                : 24 bits
  63. Compression mode                         : Lossless
  64. Stream size                              : 1.05 GiB (4%)
  65. Title                                    : Itsy.Bitsy.2019.1080p.BluRay.REMUX.AVC.DTS-HD.MA.5.1-FGT
  66. Language                                 : English
  67. Default                                  : No
  68. Forced                                   : No
  69. Audio #3
  70. ID                                       : 4
  71. Format                                   : AC-3
  72. Format/Info                              : Audio Coding 3
  73. Commercial name                          : Dolby Digital
  74. Codec ID                                 : A_AC3
  75. Duration                                 : 1 h 34 min
  76. Bit rate mode                            : Constant
  77. Bit rate                                 : 192 kb/s
  78. Channel(s)                               : 2 channels
  79. Channel layout                           : L R
  80. Sampling rate                            : 48.0 kHz
  81. Frame rate                               : 31.250 FPS (1536 SPF)
  82. Bit depth                                : 16 bits
  83. Compression mode                         : Lossy
  84. Stream size                              : 130 MiB (1%)
  85. Title                                    : Itsy.Bitsy.2019.1080p.BluRay.REMUX.AVC.DTS-HD.MA.5.1-FGT
  86. Language                                 : English
  87. Service kind                             : Complete Main
  88. Default                                  : No
  89. Forced                                   : No
  90. Audio #4
  91. ID                                       : 5
  92. Format                                   : AC-3
  93. Format/Info                              : Audio Coding 3
  94. Commercial name                          : Dolby Digital
  95. Codec ID                                 : A_AC3
  96. Duration                                 : 1 h 34 min
  97. Bit rate mode                            : Constant
  98. Bit rate                                 : 192 kb/s
  99. Channel(s)                               : 2 channels
  100. Channel layout                           : L R
  101. Sampling rate                            : 48.0 kHz
  102. Frame rate                               : 31.250 FPS (1536 SPF)
  103. Bit depth                                : 16 bits
  104. Compression mode                         : Lossy
  105. Stream size                              : 130 MiB (1%)
  106. Title                                    : Itsy.Bitsy.2019.1080p.BluRay.REMUX.AVC.DTS-HD.MA.5.1-FGT
  107. Language                                 : English
  108. Service kind                             : Complete Main
  109. Default                                  : No
  110. Forced                                   : No
  111. Text #1
  112. ID                                       : 6
  113. Format                                   : UTF-8
  114. Codec ID                                 : S_TEXT/UTF8
  115. Codec ID/Info                            : UTF-8 Plain Text
  116. Duration                                 : 1 h 30 min
  117. Bit rate                                 : 30 b/s
  118. Count of elements                        : 783
  119. Stream size                              : 20.4 KiB (0%)
  120. Title                                    : English-SRT
  121. Language                                 : English
  122. Default                                  : Yes
  123. Forced                                   : No
  124. Text #2
  125. ID                                       : 7
  126. Format                                   : PGS
  127. Muxing mode                              : zlib
  128. Codec ID                                 : S_HDMV/PGS
  129. Codec ID/Info                            : Picture based subtitle format used on BDs/HD-DVDs
  130. Duration                                 : 1 h 34 min
  131. Bit rate                                 : 20.7 kb/s
  132. Count of elements                        : 1431
  133. Stream size                              : 14.0 MiB (0%)
  134. Title                                    : English-PGS
  135. Language                                 : English
  136. Default                                  : No
  137. Forced                                   : No
  138. Menu
  139. 00:00:00.000                             : en:Chapter 01
  140. 00:07:37.331                             : en:Chapter 02
  141. 00:15:25.174                             : en:Chapter 03
  142. 00:23:57.227                             : en:Chapter 04
  143. 00:35:56.988                             : en:Chapter 05
  144. 00:42:30.089                             : en:Chapter 06
  145. 00:52:14.256                             : en:Chapter 07
  146. 01:01:11.209                             : en:Chapter 08
  147. 01:07:56.739                             : en:Chapter 09
  148. 01:16:16.780                             : en:Chapter 10
  149. 01:22:51.800                             : en:Chapter 11
  150. 01:28:58.916                             : en:Chapter 12
  151. 01:34:55.022                             : en:Chapter 13
复制代码






                                       
                                       

                                       
                                       
                                       




回复

使用道具 举报

懒得打字嘛,点击右侧快捷回复 【右侧内容,后台自定义】
您需要登录后才可以回帖 登录 | 立即加入

本版积分规则

Archiver| |网站地图

Copyright © 2024 Comsenz Inc. Powered by 蓝光电影网

本站内容由用户自主分享和转载自互联网,转载目的在于传递更多信息,并不代表本网赞同其观点和对其真实性负责。

如有侵权、违反国家法律政策行为,请联系我们,我们会第一时间及时清除和处理!

举报反馈邮箱:4k1080.com@gmail.com

快速回复 返回顶部 返回列表