找回密码

查看: 1939|回复: 0

[剧情] 与我同行 Going.My.Way.1944.1080p.BluRay.REMUX.AVC.DTS-HD.MA.2.0-FGT 27.10GB

[复制链接]
蓝光币
2048
发表于 2019-9-29 15:42:18 | 显示全部楼层 |阅读模式


◎译  名 与我同业
◎片  名 Going My Way
◎年  代 1944
◎产  地 美国
◎类  别 剧情 / 笑剧 / 音乐 / 歌舞
◎语  言 英语
◎上映日期 1944-05-03
◎IMDb评分  7.1/10 from 9435 users
◎IMDb链接  http://www.imdb.com/title/tt0036872
◎豆瓣评分 7.5/10 from 821 users
◎豆瓣链接 https://movie.douban.com/subject/1292855/
◎片  长 126 分钟
◎导  演 Leo McCarey
◎编  剧 Frank Butler / Frank Cavett
◎主  演 Bing Crosby
       Barry Fitzgerald
       Frank McHugh
       Jean Heather
       Gene Lockhart

◎标  签 美国 | 奥斯卡最好影片 | 音乐 | 1944 | 奥斯卡 | 美国电影 | 剧情 | 1940s
◎简  介  
  故事发生在具有着深厚历史的圣多明尼教堂当中,在这里执掌的,是名为基斯(巴里·菲茨杰拉德 Barry Fitzgerald 饰)的神父,基斯在这个职位上已经度过了四十五年的时光了。基斯年事已高,思惟早已经渐渐跟不上潮水,前来听他传教的信徒们越来越少,教堂很快就堕入了入不够出的危机当中。
  就在这个节骨眼上,一位名叫欧曼尼(平·克劳斯贝 Bing Crosby 饰)的年轻神父被教会派来此地辅佐基斯。对于这个活跃滑稽的年轻人,刚强老成的基斯固然是看着一百个不扎眼,但是,欧曼尼照旧我行我素,用他暖和随和的气概,让每一小我如沐春风。随着时候的推移,欧曼尼在耳濡目染当中改变了基斯的想法,而且帮助教堂筹得了重建资金,拯救了这座陈腐的圣坛。
◎获奖情况  
  第17届奥斯卡金像奖(1945)
  最好影片
  最好导演 莱奥·麦卡雷
  最好男配角 平·克劳斯贝
  最好男配角(提名) 巴里·菲茨杰拉德
  最好男配角 巴里·菲茨杰拉德
  最好原创故事 莱奥·麦卡雷
  最好编剧 弗兰克·巴特勒 / 弗兰克·卡韦特
  黑白片最好摄影(提名) Lionel Lindon
  最好剪辑(提名) LeRoy Stone
  最好原创歌曲 Jimmy Van Heusen / Johnny Burke
  第2届金球奖(1945)
  电影类 最好剧情片 莱奥·麦卡雷
  电影类 最好导演 莱奥·麦卡雷
  电影类 最好男配角 巴里·菲茨杰拉德
  1. Video
  2. ID                                       : 1
  3. Format                                   : AVC
  4. Format/Info                              : Advanced Video Codec
  5. Format profile                           : [email protected]
  6. Format settings                          : CABAC / 4 Ref Frames
  7. Format settings, CABAC                   : Yes
  8. Format settings, Reference frames        : 4 frames
  9. Codec ID                                 : V_MPEG4/ISO/AVC
  10. Duration                                 : 2 h 6 min
  11. Bit rate mode                            : Variable
  12. Bit rate                                 : 28.8 Mb/s
  13. Maximum bit rate                         : 36.0 Mb/s
  14. Width                                    : 1 920 pixels
  15. Height                                   : 1 080 pixels
  16. Display aspect ratio                     : 16:9
  17. Frame rate mode                          : Constant
  18. Frame rate                               : 23.976 (24000/1001) FPS
  19. Color space                              : YUV
  20. Chroma subsampling                       : 4:2:0
  21. Bit depth                                : 8 bits
  22. Scan type                                : Progressive
  23. Bits/(Pixel*Frame)                       : 0.580
  24. Stream size                              : 25.5 GiB (94%)
  25. Title                                    : Going.My.Way.1944.1080p.BluRay.REMUX.AVC.DTS-HD.MA.2.0-FGT
  26. Language                                 : English
  27. Default                                  : No
  28. Forced                                   : No
  29. Audio #1
  30. ID                                       : 2
  31. Format                                   : DTS XLL
  32. Format/Info                              : Digital Theater Systems
  33. Commercial name                          : DTS-HD Master Audio
  34. Codec ID                                 : A_DTS
  35. Duration                                 : 2 h 6 min
  36. Bit rate mode                            : Variable
  37. Bit rate                                 : 1 566 kb/s
  38. Channel(s)                               : 2 channels
  39. Channel layout                           : L R
  40. Sampling rate                            : 48.0 kHz
  41. Frame rate                               : 93.750 FPS (512 SPF)
  42. Bit depth                                : 24 bits
  43. Compression mode                         : Lossless
  44. Stream size                              : 1.39 GiB (5%)
  45. Title                                    : Going.My.Way.1944.1080p.BluRay.REMUX.AVC.DTS-HD.MA.2.0-FGT
  46. Language                                 : English
  47. Default                                  : Yes
  48. Forced                                   : No
  49. Audio #2
  50. ID                                       : 3
  51. Format                                   : AC-3
  52. Format/Info                              : Audio Coding 3
  53. Commercial name                          : Dolby Digital
  54. Codec ID                                 : A_AC3
  55. Duration                                 : 2 h 6 min
  56. Bit rate mode                            : Constant
  57. Bit rate                                 : 192 kb/s
  58. Channel(s)                               : 2 channels
  59. Channel layout                           : L R
  60. Sampling rate                            : 48.0 kHz
  61. Frame rate                               : 31.250 FPS (1536 SPF)
  62. Bit depth                                : 16 bits
  63. Compression mode                         : Lossy
  64. Stream size                              : 174 MiB (1%)
  65. Title                                    : Going.My.Way.1944.1080p.BluRay.REMUX.AVC.DTS-HD.MA.2.0-FGT
  66. Language                                 : English
  67. Service kind                             : Complete Main
  68. Default                                  : No
  69. Forced                                   : No
  70. Text
  71. ID                                       : 4
  72. Format                                   : PGS
  73. Muxing mode                              : zlib
  74. Codec ID                                 : S_HDMV/PGS
  75. Codec ID/Info                            : Picture based subtitle format used on BDs/HD-DVDs
  76. Duration                                 : 2 h 6 min
  77. Bit rate                                 : 46.6 kb/s
  78. Count of elements                        : 2976
  79. Stream size                              : 42.1 MiB (0%)
  80. Title                                    : English-PGS
  81. Language                                 : English
  82. Default                                  : Yes
  83. Forced                                   : No
  84. Menu
  85. 00:00:00.000                             : en:Chapter 01
  86. 00:08:22.126                             : en:Chapter 02
  87. 00:20:46.912                             : en:Chapter 03
  88. 00:28:54.566                             : en:Chapter 04
  89. 00:40:12.535                             : en:Chapter 05
  90. 00:50:47.002                             : en:Chapter 06
  91. 01:05:22.501                             : en:Chapter 07
  92. 01:15:50.254                             : en:Chapter 08
  93. 01:25:10.396                             : en:Chapter 09
  94. 01:37:39.478                             : en:Chapter 10
  95. 01:47:42.164                             : en:Chapter 11
  96. 01:58:05.995                             : en:Chapter 12
  97. 02:06:37.089                             : en:Chapter 13
复制代码






                                       
                                       

                                       
                                       
                                       




回复

使用道具 举报

懒得打字嘛,点击右侧快捷回复 【右侧内容,后台自定义】
您需要登录后才可以回帖 登录 | 立即加入

本版积分规则

Archiver| |网站地图

Copyright © 2024 Comsenz Inc. Powered by 蓝光电影网

本站内容由用户自主分享和转载自互联网,转载目的在于传递更多信息,并不代表本网赞同其观点和对其真实性负责。

如有侵权、违反国家法律政策行为,请联系我们,我们会第一时间及时清除和处理!

举报反馈邮箱:4k1080.com@gmail.com

快速回复 返回顶部 返回列表