找回密码

查看: 1174|回复: 0

[喜剧] 金童子/横扫千军 The.Golden.Child.1986.REMASTERED.1080p.BluRay.x264-iFT 14.83GB

[复制链接]
蓝光币
2048
发表于 2020-12-4 08:58:30 | 显示全部楼层 |阅读模式


◎译  名 金孺子/风卷残云
◎片  名 The Golden Child
◎年  代 1986
◎产  地 美国
◎类  别 笑剧 / 行动 / 悬疑 / 奇异 / 冒险
◎语  言 英语
◎上映日期 1986-12-12
◎IMDb评分  6/10 from 50769 users
◎IMDb链接  https://www.imdb.com/title/tt0091129/
◎豆瓣评分 5.6/10 from 87 users
◎豆瓣链接 https://movie.douban.com/subject/1292462/
◎片  长 94 分钟
◎导  演 迈克尔·瑞奇 Michael Ritchie
◎编  剧 丹尼斯·费尔德曼 Dennis Feldman
◎主  演 庞斯·马尔 Pons Maar
       彼得·邝 Peter Kwong
       查尔斯·莱文 Charles Levin
       埃里克·道格拉斯 Eric Douglas
       J·L·列阿特 J.L. Reate
       兰道尔·特克斯·科布 Randall 'Tex' Cobb
       吴汉章 James Hong
       查尔斯·丹斯 Charles Dance
       夏洛特·里维斯 Charlotte Lewis
       黄自强 Victor Wong
       鲍勃·祖迪克 Bob Tzudiker
       艾迪·墨菲 Eddie Murphy
◎标  签 美国 | 笑剧 | 奇异 | 冒险 |  Eddie-Murphy(艾迪·墨菲)  | 美国电影 | 宗教 | 行动
◎简  介


  由首席黑人笑剧红星埃迪.墨菲与夏洛特.路维丝主演的奇异冒险行动笑剧,出色的殊效视觉结果,氛围严重剧烈。在悠远的东方天下西藏,一个男孩带着数代承传的奇异气力诞生了,他的使命是将光亮之事带到这个天下上。可是,一个被邪恶势力所控制的庙宇发现这个小男孩是地球上最重要的人物时,以撒陀魔为首的邪恶势力绑架了这个“小金童”,地球的前途未卜。此时,一位洛杉矶的社工员(艾迪墨菲 饰)忽然被一位先知者奉告,他已被上天选为是拯救小金童的人选,因而,社工员变成热血侠士,他在功夫女郎姬的大力辅佐下,是以展开了一段远程跋涉的奇异之旅,两人从东方取回了降魔杵,起头了与撒陀魔的正邪大战,从加州到中国,甚而游走到了天堂!
  1. Video
  2. ID                                       : 1
  3. Format                                   : AVC
  4. Format/Info                              : Advanced Video Codec
  5. Format profile                           : [email protected]
  6. Format settings                          : CABAC / 4 Ref Frames
  7. Format settings, CABAC                   : Yes
  8. Format settings, Reference frames        : 4 frames
  9. Codec ID                                 : V_MPEG4/ISO/AVC
  10. Duration                                 : 1 h 33 min
  11. Bit rate                                 : 21.5 Mb/s
  12. Width                                    : 1 920 pixels
  13. Height                                   : 1 080 pixels
  14. Display aspect ratio                     : 16:9
  15. Frame rate mode                          : Constant
  16. Frame rate                               : 23.976 (24000/1001/189150) FPS
  17. Color space                              : YUV
  18. Chroma subsampling                       : 4:2:0
  19. Bit depth                                : 8 bits
  20. Scan type                                : Progressive
  21. Bits/(Pixel*Frame)                       : 0.432
  22. Stream size                              : 14.0 GiB (95%)
  23. Title                                    : E-AC3 DD+5.1 1024kbs
  24. Writing library                          : x264 core 161 r3018+53 ~ Encoded by Mocunaman in Portugal
  25. Encoding settings                        : cabac=1 / ref=4 / deblock=1:-3:-3 / analyse=0x3:0x133 / me=umh / subme=11 / psy=1 / fade_compensate=0.00 / psy_rd=1.05:0.00 / mixed_ref=1 / me_range=32 / chroma_me=1 / trellis=2 / 8x8dct=1 / cqm=0 / deadzone=21,11 / fast_pskip=0 / chroma_qp_offset=-2 / threads=34 / lookahead_threads=5 / sliced_threads=0 / nr=0 / decimate=0 / interlaced=0 / bluray_compat=0 / constrained_intra=0 / fgo=0 / bframes=9 / b_pyramid=2 / b_adapt=2 / b_bias=0 / direct=3 / weightb=1 / open_gop=0 / weightp=2 / keyint=250 / keyint_min=23 / scenecut=40 / intra_refresh=0 / rc=2pass / mbtree=0 / bitrate=21500 / ratetol=1.0 / qcomp=0.65 / qpmin=0:0:0 / qpmax=69:69:69 / qpstep=4 / cplxblur=20.0 / qblur=0.5 / ip_ratio=1.30 / pb_ratio=1.20 / aq=3:0.70 / aq-sensitivity=10.00 / aq-factor=1.00:1.00:1.00 / aq2=0 / aq3=0
  26. Language                                 : English
  27. Default                                  : Yes
  28. Forced                                   : No
  29. Audio #1
  30. ID                                       : 2
  31. Format                                   : E-AC-3
  32. Format/Info                              : Enhanced AC-3
  33. Commercial name                          : Dolby Digital Plus
  34. Codec ID                                 : A_EAC3
  35. Duration                                 : 1 h 33 min
  36. Bit rate mode                            : Constant
  37. Bit rate                                 : 1 024 kb/s
  38. Channel(s)                               : 6 channels
  39. Channel layout                           : L R C LFE Ls Rs
  40. Sampling rate                            : 48.0 kHz
  41. Frame rate                               : 31.250 FPS (1536 SPF)
  42. Compression mode                         : Lossy
  43. Stream size                              : 685 MiB (5%)
  44. Language                                 : English
  45. Service kind                             : Complete Main
  46. Default                                  : Yes
  47. Forced                                   : No
  48. Audio #2
  49. ID                                       : 3
  50. Format                                   : AC-3
  51. Format/Info                              : Audio Coding 3
  52. Commercial name                          : Dolby Digital
  53. Codec ID                                 : A_AC3
  54. Duration                                 : 1 h 33 min
  55. Bit rate mode                            : Constant
  56. Bit rate                                 : 192 kb/s
  57. Channel(s)                               : 2 channels
  58. Channel layout                           : L R
  59. Sampling rate                            : 48.0 kHz
  60. Frame rate                               : 31.250 FPS (1536 SPF)
  61. Compression mode                         : Lossy
  62. Stream size                              : 128 MiB (1%)
  63. Title                                    : AC3 2.0 192kbs Original Stereo Audio
  64. Language                                 : English
  65. Service kind                             : Complete Main
  66. Default                                  : No
  67. Forced                                   : No
  68. Text #1
  69. ID                                       : 4
  70. Format                                   : UTF-8
  71. Codec ID                                 : S_TEXT/UTF8
  72. Codec ID/Info                            : UTF-8 Plain Text
  73. Duration                                 : 1 h 24 min
  74. Bit rate                                 : 42 b/s
  75. Count of elements                        : 631
  76. Stream size                              : 26.3 KiB (0%)
  77. Title                                    : Full .srt
  78. Language                                 : English
  79. Default                                  : No
  80. Forced                                   : No
  81. Text #2
  82. ID                                       : 5
  83. Format                                   : UTF-8
  84. Codec ID                                 : S_TEXT/UTF8
  85. Codec ID/Info                            : UTF-8 Plain Text
  86. Duration                                 : 1 h 29 min
  87. Bit rate                                 : 46 b/s
  88. Count of elements                        : 828
  89. Stream size                              : 30.1 KiB (0%)
  90. Title                                    : SDH .srt
  91. Language                                 : English
  92. Default                                  : No
  93. Forced                                   : No
  94. Text #3
  95. ID                                       : 6
  96. Format                                   : UTF-8
  97. Codec ID                                 : S_TEXT/UTF8
  98. Codec ID/Info                            : UTF-8 Plain Text
  99. Duration                                 : 1 h 32 min
  100. Bit rate                                 : 35 b/s
  101. Count of elements                        : 626
  102. Stream size                              : 24.2 KiB (0%)
  103. Title                                    : Full .srt
  104. Language                                 : French
  105. Default                                  : No
  106. Forced                                   : No
  107. Menu
  108. 00:00:00.000                             : :Kidnapped
  109. 00:05:53.603                             : :Lost Children
  110. 00:10:46.020                             : :He\'s No Angel
  111. 00:13:09.205                             : :Already on the Case
  112. 00:17:10.696                             : :The Chosen One
  113. 00:22:03.864                             : :You Will Eat
  114. 00:25:11.468                             : :A Vision of the Child
  115. 00:27:09.294                             : :The Yellow Dragons
  116. 00:34:02.248                             : :Tommy Tong\'s
  117. 00:37:16.901                             : :The Ajanti Dagger
  118. 00:39:16.854                             : :An Attractive Offer
  119. 00:44:49.603                             : :A Dagger for a Child
  120. 00:47:46.863                             : :Tibet
  121. 00:55:21.735                             : :Stay on the Path
  122. 01:04:01.045                             : :So Little Understanding
  123. 01:07:52.318                             : :Viva Nepal!
  124. 01:11:04.385                             : :My Brother Numspa
  125. 01:13:36.912                             : :A Pure Heart
  126. 01:19:57.042                             : :Freeing the Child
  127. 01:26:17.964                             : :Sundown
  128. 01:29:35.370                             : :End Credits
复制代码






                                       
                                       

                                       
                                       
                                       




回复

使用道具 举报

懒得打字嘛,点击右侧快捷回复 【右侧内容,后台自定义】
您需要登录后才可以回帖 登录 | 立即加入

本版积分规则

Archiver| |网站地图

Copyright © 2024 Comsenz Inc. Powered by 蓝光电影网

本站内容由用户自主分享和转载自互联网,转载目的在于传递更多信息,并不代表本网赞同其观点和对其真实性负责。

如有侵权、违反国家法律政策行为,请联系我们,我们会第一时间及时清除和处理!

举报反馈邮箱:4k1080.com@gmail.com

快速回复 返回顶部 返回列表