找回密码

查看: 1653|回复: 0

[剧情] 倩影伊人/她只是一道掠影 Shes.Just.A.Shadow.2019.1080p.BluRay.REMUX.AVC.DTS-HR.5.1-FGT 18.85GB

[复制链接]
蓝光币
2048
发表于 2019-9-28 23:24:20 | 显示全部楼层 |阅读模式


◎译  名 倩影伊人 / 她只是一道掠影 / 形影才子
◎片  名 She's Just a Shadow
◎年  代 2018
◎产  地 美国
◎类  别 剧情 / 犯罪
◎语  言 英语
◎IMDb评分  3.4/10 from 18 users
◎IMDb链接  http://www.imdb.com/title/tt6019394
◎豆瓣评分 0/10 from 0 users
◎豆瓣链接 https://movie.douban.com/subject/26865564/
◎导  演 亚当·舍曼 Adam Sherman
◎编  剧 亚当·舍曼 Adam Sherman
◎主  演 冈本多绪 Tao Okamoto
      安部春香 Haruka Abe

◎标  签 冈本多绪 | 日本 | 美国 | 犯罪 | 戛纳 | 剧情
◎简  介  
  日本超模冈本多绪、歌星安倍春香加盟亚当·舍曼新电影《她只是一道掠影》(She’s Just A Shadow,暂译)。影片报告了东京地下黑帮的故事,一个女性为主的犯罪团伙卷入了一场紊乱的枪战……这是导演亚当·舍曼的第三部影片,电影布满了日本元素。具体上映日期还未肯定。
  1. Video
  2. ID                                       : 1
  3. Format                                   : AVC
  4. Format/Info                              : Advanced Video Codec
  5. Format profile                           : [email protected]
  6. Format settings                          : CABAC / 4 Ref Frames
  7. Format settings, CABAC                   : Yes
  8. Format settings, Reference frames        : 4 frames
  9. Codec ID                                 : V_MPEG4/ISO/AVC
  10. Duration                                 : 1 h 57 min
  11. Bit rate mode                            : Variable
  12. Bit rate                                 : 21.0 Mb/s
  13. Maximum bit rate                         : 30.0 Mb/s
  14. Width                                    : 1 920 pixels
  15. Height                                   : 1 080 pixels
  16. Display aspect ratio                     : 16:9
  17. Frame rate mode                          : Constant
  18. Frame rate                               : 23.976 (24000/1001) FPS
  19. Standard                                 : NTSC
  20. Color space                              : YUV
  21. Chroma subsampling                       : 4:2:0
  22. Bit depth                                : 8 bits
  23. Scan type                                : Progressive
  24. Bits/(Pixel*Frame)                       : 0.422
  25. Stream size                              : 17.2 GiB (91%)
  26. Title                                    : Shes.Just.A.Shadow.2019.1080p.BluRay.REMUX.AVC.DTS-HR.5.1-FGT
  27. Language                                 : English
  28. Default                                  : No
  29. Forced                                   : No
  30. Color range                              : Limited
  31. Color primaries                          : BT.709
  32. Transfer characteristics                 : BT.709
  33. Matrix coefficients                      : BT.709
  34. Audio
  35. ID                                       : 2
  36. Format                                   : DTS XBR
  37. Format/Info                              : Digital Theater Systems
  38. Commercial name                          : DTS-HD High Resolution Audio
  39. Codec ID                                 : A_DTS
  40. Duration                                 : 1 h 57 min
  41. Bit rate mode                            : Constant
  42. Bit rate                                 : 2 046 kb/s
  43. Channel(s)                               : 6 channels
  44. Channel layout                           : C L R Ls Rs LFE
  45. Sampling rate                            : 48.0 kHz
  46. Frame rate                               : 93.750 FPS (512 SPF)
  47. Bit depth                                : 16 bits
  48. Compression mode                         : Lossy
  49. Stream size                              : 1.67 GiB (9%)
  50. Title                                    : Shes.Just.A.Shadow.2019.1080p.BluRay.REMUX.AVC.DTS-HR.5.1-FGT
  51. Language                                 : English
  52. Default                                  : Yes
  53. Forced                                   : No
  54. Menu
  55. 00:00:00.000                             : en:Chapter 01
  56. 00:11:30.272                             : en:Chapter 02
  57. 00:22:08.744                             : en:Chapter 03
  58. 00:31:35.351                             : en:Chapter 04
  59. 00:39:42.463                             : en:Chapter 05
  60. 00:49:42.854                             : en:Chapter 06
  61. 00:58:49.025                             : en:Chapter 07
  62. 01:10:26.889                             : en:Chapter 08
  63. 01:20:40.001                             : en:Chapter 09
  64. 01:31:51.589                             : en:Chapter 10
  65. 01:41:48.268                             : en:Chapter 11
  66. 01:52:41.838                             : en:Chapter 12
复制代码






                                       
                                       

                                       
                                       
                                       




回复

使用道具 举报

懒得打字嘛,点击右侧快捷回复 【右侧内容,后台自定义】
您需要登录后才可以回帖 登录 | 立即加入

本版积分规则

Archiver| |网站地图

Copyright © 2024 Comsenz Inc. Powered by 蓝光电影网

本站内容由用户自主分享和转载自互联网,转载目的在于传递更多信息,并不代表本网赞同其观点和对其真实性负责。

如有侵权、违反国家法律政策行为,请联系我们,我们会第一时间及时清除和处理!

举报反馈邮箱:4k1080.com@gmail.com

快速回复 返回顶部 返回列表