找回密码

查看: 1171|回复: 0

[动作] 丛林之王/人猿泰山 Tarzan.2013.1080p.BluRay.x264-ROVERS 4.37GB

[复制链接]
蓝光币
2048
发表于 2019-7-1 07:35:13 | 显示全部楼层 |阅读模式


◎译  名 森林之王 / 人猿泰山
◎片  名 Tarzan
◎年  代 2013
◎产  地 德国
◎类  别 行动 / 动画 / 冒险
◎语  言 英语
◎上映日期 2013-10-17(俄罗斯) / 2014-02-20(德国) / 2014-08-21(中国大陆)
◎IMDb评分  4.8/10 from 11744 users
◎IMDb链接  http://www.imdb.com/title/tt1705952
◎豆瓣评分 5.8/10 from 2179 users
◎豆瓣链接 https://movie.douban.com/subject/10738133/
◎片  长 95分钟(中国大陆)
◎导  演 莱因哈德·克洛斯 Reinhard Klooss
◎编  剧 莱因哈德·克洛斯 Reinhard Klooss / 杰西卡·波斯蒂戈 Jessica Postigo / 埃德加·赖斯·巴勒斯 Edgar Rice Burroughs
◎主  演 凯南·鲁兹 Kellan Lutz
      罗伯特·卡普荣 Robert Capron
      史宾塞·洛克 Spencer Locke
      杰米·雷·纽曼 Jaime Ray Newman
      布莱恩·布鲁姆 Brian Bloom
      马克·迪克林 Mark Deklin
      布莱恩·赫斯基 Brian Huskey
      特雷弗·圣约翰 Trevor St. John
      塞西莉·费伊 Cecily Fay
      乔·奥斯蒙德 Jo Osmond
      丽贝卡·雷尼 Rebecca Reaney
      安东·塞特霍尔姆 Anton Zetterholm
      安迪·韦勒姆 Andy Wareham
      克雷格·加纳 Craig Garner
      杰夫·伯勒尔 Jeff Burrell

◎标  签 动画 | 德国 | 泰山 | 2013 | 冒险 | 恋爱 | 行动 | 3D
◎简  介  
  已经,一颗突如其来的陨石几近灭绝了地球上的一切生物,却也翻开了新的纪元。一晃眼七千年曩昔,勇敢的企业家约翰(马克·迪克林 Mark Deklin 配音)带着妻子和儿子远赴非洲森林,想要寻觅陨石的着落,由于约翰相信,陨石上附带的能量,可以处理困扰全球多年的能源题目。
不幸的是,一场空难夺走了约翰和妻子的姓名,留下年幼的儿子泰山(凯南·鲁兹 Kellan Lutz 配音)丢失在茫茫的非洲森林当中。荣幸的是,一群善良的猩猩捡到了泰山,它们收留它,抚养他。一晃眼多年曩昔,泰山已然长成了壮硕健康的青年,自小在猩猩群落里长大的他自然习得了飞檐走壁的本事。某日,泰山碰见了名为珍(史宾塞·洛克 Spencer Locke 配音)的人类女子,她是他长这么大碰见的第一小我类。
  1. Video
  2. ID                                       : 1
  3. Format                                   : AVC
  4. Format/Info                              : Advanced Video Codec
  5. Format profile                           : [email protected]
  6. Format settings, CABAC                   : Yes
  7. Format settings, ReFrames                : 5 frames
  8. Codec ID                                 : V_MPEG4/ISO/AVC
  9. Duration                                 : 1 h 34 min
  10. Bit rate                                 : 5 131 kb/s
  11. Width                                    : 1 920 pixels
  12. Height                                   : 808 pixels
  13. Display aspect ratio                     : 2.40:1
  14. Frame rate mode                          : Constant
  15. Frame rate                               : 23.976 FPS
  16. Color space                              : YUV
  17. Chroma subsampling                       : 4:2:0
  18. Bit depth                                : 8 bits
  19. Scan type                                : Progressive
  20. Bits/(Pixel*Frame)                       : 0.138
  21. Stream size                              : 3.29 GiB (75%)
  22. Writing library                          : x264 core 142 r2431 ac76440
  23. Encoding settings                        : cabac=1 / ref=5 / deblock=1:0:0 / analyse=0x3:0x133 / me=umh / subme=7 / psy=1 / psy_rd=1.00:0.00 / mixed_ref=1 / me_range=16 / chroma_me=1 / trellis=1 / 8x8dct=1 / cqm=0 / deadzone=21,11 / fast_pskip=0 / chroma_qp_offset=-2 / threads=12 / lookahead_threads=2 / sliced_threads=0 / nr=0 / decimate=1 / interlaced=0 / bluray_compat=0 / constrained_intra=0 / bframes=3 / b_pyramid=2 / b_adapt=1 / b_bias=0 / direct=1 / weightb=1 / open_gop=0 / weightp=2 / keyint=250 / keyint_min=23 / scenecut=40 / intra_refresh=0 / rc_lookahead=40 / rc=2pass / mbtree=1 / bitrate=5131 / ratetol=1.0 / qcomp=0.60 / qpmin=0 / qpmax=69 / qpstep=4 / cplxblur=20.0 / qblur=0.5 / ip_ratio=1.40 / aq=1:1.00
  24. Language                                 : English
  25. Default                                  : Yes
  26. Forced                                   : No
  27. Audio
  28. ID                                       : 2
  29. Format                                   : DTS
  30. Format/Info                              : Digital Theater Systems
  31. Mode                                     : 16
  32. Format settings, Endianness              : Big
  33. Codec ID                                 : A_DTS
  34. Duration                                 : 1 h 34 min
  35. Bit rate mode                            : Constant
  36. Bit rate                                 : 1 509 kb/s
  37. Channel(s)                               : 6 channels
  38. Channel positions                        : Front: L C R, Side: L R, LFE
  39. Sampling rate                            : 48.0 kHz
  40. Frame rate                               : 93.750 FPS (512 spf)
  41. Bit depth                                : 24 bits
  42. Compression mode                         : Lossy
  43. Stream size                              : 1 016 MiB (23%)
  44. Language                                 : English
  45. Default                                  : Yes
  46. Forced                                   : No
  47. Menu
  48. 00:00:00.000                             : en:00:00:00.000
  49. 00:07:14.517                             : en:00:07:14.517
  50. 00:14:53.768                             : en:00:14:53.768
  51. 00:26:26.502                             : en:00:26:26.502
  52. 00:32:40.083                             : en:00:32:40.083
  53. 00:39:25.029                             : en:00:39:25.029
  54. 00:46:21.320                             : en:00:46:21.320
  55. 00:55:35.332                             : en:00:55:35.332
  56. 01:01:42.324                             : en:01:01:42.324
  57. 01:10:17.380                             : en:01:10:17.380
  58. 01:17:43.742                             : en:01:17:43.742
  59. 01:28:00.108                             : en:01:28:00.108
复制代码









                                       
                                       

                                       
                                       
                                       




回复

使用道具 举报

懒得打字嘛,点击右侧快捷回复 【右侧内容,后台自定义】
您需要登录后才可以回帖 登录 | 立即加入

本版积分规则

Archiver| |网站地图

Copyright © 2024 Comsenz Inc. Powered by 蓝光电影网

本站内容由用户自主分享和转载自互联网,转载目的在于传递更多信息,并不代表本网赞同其观点和对其真实性负责。

如有侵权、违反国家法律政策行为,请联系我们,我们会第一时间及时清除和处理!

举报反馈邮箱:4k1080.com@gmail.com

快速回复 返回顶部 返回列表