找回密码

查看: 1005|回复: 0

[其他] 狂野澳洲:边缘/澳大利亚野生篇 IMAX.Wild.Australia.The.Edge.1996.1080p.BluRay.x264-LCHD 2.64GB

[复制链接]
蓝光币
2039
发表于 2020-9-18 19:20:41 | 显示全部楼层 |阅读模式


◎译  名 狂野澳洲:边沿/澳大利亚野生篇/野性澳洲
◎片  名 Wild Australia: The Edge
◎年  代 1996
◎产  地 澳大利亚
◎类  别 短片 / 冒险
◎语  言 英语
◎上映日期 1996-01-26
◎IMDb评分  7/10 from 54 users
◎IMDb链接  https://www.imdb.com/title/tt0354210/
◎豆瓣评分 8.6/10 from 300 users
◎豆瓣链接 https://movie.douban.com/subject/2243035/
◎片  长 37分钟
◎导  演 John Weiley
◎主  演 雨果·维文 Hugo Weaving
◎标  签 记载片 | BBC | 自然 | 英国 | 澳洲 | 野性澳洲 | 澳大利亚 | 澳洲地理
◎简  介


  Rappel into a world of exotic creatures, beautiful and treacherous waterfalls, canyons, and underground rivers carved by streams as our modern bushwackers explore a natural wonderland as it was ninety million years ago.
  1. Video
  2. ID                                       : 1
  3. Format                                   : AVC
  4. Format/Info                              : Advanced Video Codec
  5. Format profile                           : [email protected]
  6. Format settings                          : CABAC / 4 Ref Frames
  7. Format settings, CABAC                   : Yes
  8. Format settings, Reference frames        : 4 frames
  9. Codec ID                                 : V_MPEG4/ISO/AVC
  10. Duration                                 : 36 min 43 s
  11. Bit rate                                 : 8 805 kb/s
  12. Width                                    : 1 920 pixels
  13. Height                                   : 1 080 pixels
  14. Display aspect ratio                     : 16:9
  15. Frame rate mode                          : Constant
  16. Frame rate                               : 23.976 (24000/1001/189150) FPS
  17. Color space                              : YUV
  18. Chroma subsampling                       : 4:2:0
  19. Bit depth                                : 8 bits
  20. Scan type                                : Progressive
  21. Bits/(Pixel*Frame)                       : 0.177
  22. Stream size                              : 2.20 GiB (83%)
  23. Writing library                          : x264 core 96 r1612 97c7ecc
  24. Encoding settings                        : cabac=1 / ref=4 / deblock=1:-1:-1 / analyse=0x3:0x113 / me=umh / subme=7 / psy=1 / psy_rd=1.00:0.00 / mixed_ref=1 / me_range=16 / chroma_me=1 / trellis=2 / 8x8dct=1 / cqm=0 / deadzone=21,11 / fast_pskip=1 / chroma_qp_offset=-2 / threads=6 / sliced_threads=0 / nr=0 / decimate=1 / interlaced=0 / constrained_intra=0 / bframes=3 / b_pyramid=2 / b_adapt=2 / b_bias=0 / direct=3 / weightb=1 / weightp=2 / keyint=250 / keyint_min=25 / scenecut=40 / intra_refresh=0 / rc_lookahead=40 / rc=2pass / mbtree=1 / bitrate=8805 / ratetol=1.0 / qcomp=0.60 / qpmin=10 / qpmax=51 / qpstep=4 / cplxblur=20.0 / qblur=0.5 / vbv_maxrate=50000 / vbv_bufsize=50000 / ip_ratio=1.40 / aq=1:1.00 / nal_hrd=none
  25. Language                                 : English
  26. Default                                  : Yes
  27. Forced                                   : Yes

  28. Audio
  29. ID                                       : 2
  30. Format                                   : DTS
  31. Format/Info                              : Digital Theater Systems
  32. Codec ID                                 : A_DTS
  33. Duration                                 : 36 min 43 s
  34. Bit rate mode                            : Constant
  35. Bit rate                                 : 1 509 kb/s
  36. Channel(s)                               : 6 channels
  37. Channel layout                           : C L R Ls Rs LFE
  38. Sampling rate                            : 48.0 kHz
  39. Frame rate                               : 93.750 FPS (512 SPF)
  40. Bit depth                                : 16 bits
  41. Compression mode                         : Lossy
  42. Stream size                              : 396 MiB (15%)
  43. Language                                 : English
  44. Default                                  : Yes
  45. Forced                                   : Yes
复制代码







                                       
                                       

                                       
                                       
                                       




回复

使用道具 举报

懒得打字嘛,点击右侧快捷回复 【右侧内容,后台自定义】
您需要登录后才可以回帖 登录 | 立即加入

本版积分规则

Archiver| |网站地图

Copyright © 2024 Comsenz Inc. Powered by 蓝光电影网

本站内容由用户自主分享和转载自互联网,转载目的在于传递更多信息,并不代表本网赞同其观点和对其真实性负责。

如有侵权、违反国家法律政策行为,请联系我们,我们会第一时间及时清除和处理!

举报反馈邮箱:4k1080.com@gmail.com

快速回复 返回顶部 返回列表