找回密码

查看: 1561|回复: 0

[剧情] 闪灵/幻觉 The.Shining.1980.US.DC.REMASTERED.1080p.BluRay.REMUX.AVC.DTS-HD.MA.5.1-FGT 34.10GB

[复制链接]
蓝光币
2039
发表于 2019-9-28 10:34:40 | 显示全部楼层 |阅读模式


◎译  名 闪灵 / 幻觉 / 幽光 / 鬼店(台)
◎片  名 The Shining
◎年  代 1980
◎产  地 英国 / 美国
◎类  别 剧情 / 悬疑 / 可骇
◎语  言 英语
◎上映日期 1980-05-23(美国)
◎IMDb评分  8.4/10 from 798884 users
◎IMDb链接  http://www.imdb.com/title/tt0081505
◎豆瓣评分 8.1/10 from 250508 users
◎豆瓣链接 https://movie.douban.com/subject/1292225/
◎片  长 119分钟(欧洲版)
◎导  演 斯坦利·库布里克 Stanley Kubrick
◎编  剧 斯坦利·库布里克 Stanley Kubrick / 黛安·约翰逊 Diane Johnson / 斯蒂芬·金 Stephen King
◎主  演 杰克·尼科尔森 Jack Nicholson
       谢莉·杜瓦尔 Shelley Duvall
       丹尼·劳埃德 Danny Lloyd
       斯加特克罗索斯 Scatman Crothers
       巴瑞·尼尔森 Barry Nelson
       菲利普·斯通 Philip Stone
       乔·托克尔 Joe Turkel
       安妮·杰克逊 Anne Jackson
       托尼·伯顿 Tony Burton

◎标  签 惊悚 | 可骇 | 美国 | 悬疑 | 库布里克 | 斯坦利·库布里克 | 可骇片 | 美国电影
◎简  介  
  杰克(杰克?尼科尔森 Jack Nicholson 饰)是一个作家。一个冬季,他获得了一个看管山顶酒店的差事。这正合杰克的意义,他恰好可以有一个清幽的地方写作。因而杰克带着妻儿搬进了酒店。
  冬季大雪封路,山顶酒店只要杰克一家三口。从他们一搬进来,杰克的妻子温蒂(谢莉·杜瓦尔 Shelley Duvall 饰)就发现这里氛围诡异,杰克的儿子丹尼(丹尼·劳埃德 Danny Lloyd 饰)经常看到一些他不熟悉的人,但这里除了他们一家别无他人。而杰克除了一成天闷头写作外,脾性亦变得越来越怪僻。
  直到有一天,温蒂发现丈夫这些天来一向写就只要一句话:杰克发狂了!
  1. Video
  2. ID                                       : 1
  3. Format                                   : AVC
  4. Format/Info                              : Advanced Video Codec
  5. Format profile                           : [email protected]
  6. Format settings                          : CABAC / 4 Ref Frames
  7. Format settings, CABAC                   : Yes
  8. Format settings, Reference frames        : 4 frames
  9. Codec ID                                 : V_MPEG4/ISO/AVC
  10. Duration                                 : 2 h 23 min
  11. Bit rate mode                            : Variable
  12. Bit rate                                 : 26.7 Mb/s
  13. Maximum bit rate                         : 34.0 Mb/s
  14. Width                                    : 1 920 pixels
  15. Height                                   : 1 080 pixels
  16. Display aspect ratio                     : 16:9
  17. Frame rate mode                          : Constant
  18. Frame rate                               : 23.976 (24000/1001) FPS
  19. Color space                              : YUV
  20. Chroma subsampling                       : 4:2:0
  21. Bit depth                                : 8 bits
  22. Scan type                                : Progressive
  23. Bits/(Pixel*Frame)                       : 0.537
  24. Stream size                              : 26.8 GiB (79%)
  25. Title                                    : The.Shining.1980.US.DC.REMASTERED.1080p.BluRay.REMUX.AVC.DTS-HD.MA.5.1-FGT
  26. Language                                 : English
  27. Default                                  : No
  28. Forced                                   : No
  29. Audio #1
  30. ID                                       : 2
  31. Format                                   : DTS XLL
  32. Format/Info                              : Digital Theater Systems
  33. Commercial name                          : DTS-HD Master Audio
  34. Codec ID                                 : A_DTS
  35. Duration                                 : 2 h 23 min
  36. Bit rate mode                            : Variable
  37. Bit rate                                 : 4 098 kb/s
  38. Channel(s)                               : 6 channels
  39. Channel layout                           : C L R Ls Rs LFE
  40. Sampling rate                            : 48.0 kHz
  41. Frame rate                               : 93.750 FPS (512 SPF)
  42. Bit depth                                : 24 bits
  43. Compression mode                         : Lossless
  44. Stream size                              : 4.12 GiB (12%)
  45. Title                                    : The.Shining.1980.US.DC.REMASTERED.1080p.BluRay.REMUX.AVC.DTS-HD.MA.5.1-FGT
  46. Language                                 : English
  47. Default                                  : Yes
  48. Forced                                   : No
  49. Audio #2
  50. ID                                       : 3
  51. Format                                   : AC-3
  52. Format/Info                              : Audio Coding 3
  53. Commercial name                          : Dolby Digital
  54. Codec ID                                 : A_AC3
  55. Duration                                 : 2 h 23 min
  56. Bit rate mode                            : Constant
  57. Bit rate                                 : 640 kb/s
  58. Channel(s)                               : 6 channels
  59. Channel layout                           : L R C LFE Ls Rs
  60. Sampling rate                            : 48.0 kHz
  61. Frame rate                               : 31.250 FPS (1536 SPF)
  62. Bit depth                                : 16 bits
  63. Compression mode                         : Lossy
  64. Stream size                              : 658 MiB (2%)
  65. Title                                    : The.Shining.1980.US.DC.REMASTERED.1080p.BluRay.REMUX.AVC.DTS-HD.MA.5.1-FGT
  66. Language                                 : Polish
  67. Service kind                             : Complete Main
  68. Default                                  : No
  69. Forced                                   : No
  70. Audio #3
  71. ID                                       : 4
  72. Format                                   : AC-3
  73. Format/Info                              : Audio Coding 3
  74. Commercial name                          : Dolby Digital
  75. Codec ID                                 : A_AC3
  76. Duration                                 : 2 h 23 min
  77. Bit rate mode                            : Constant
  78. Bit rate                                 : 640 kb/s
  79. Channel(s)                               : 6 channels
  80. Channel layout                           : L R C LFE Ls Rs
  81. Sampling rate                            : 48.0 kHz
  82. Frame rate                               : 31.250 FPS (1536 SPF)
  83. Bit depth                                : 16 bits
  84. Compression mode                         : Lossy
  85. Stream size                              : 658 MiB (2%)
  86. Title                                    : The.Shining.1980.US.DC.REMASTERED.1080p.BluRay.REMUX.AVC.DTS-HD.MA.5.1-FGT
  87. Language                                 : Spanish
  88. Service kind                             : Complete Main
  89. Default                                  : No
  90. Forced                                   : No
  91. Audio #4
  92. ID                                       : 5
  93. Format                                   : AC-3
  94. Format/Info                              : Audio Coding 3
  95. Commercial name                          : Dolby Digital
  96. Codec ID                                 : A_AC3
  97. Duration                                 : 2 h 23 min
  98. Bit rate mode                            : Constant
  99. Bit rate                                 : 192 kb/s
  100. Channel(s)                               : 2 channels
  101. Channel layout                           : L R
  102. Sampling rate                            : 48.0 kHz
  103. Frame rate                               : 31.250 FPS (1536 SPF)
  104. Bit depth                                : 16 bits
  105. Compression mode                         : Lossy
  106. Stream size                              : 197 MiB (1%)
  107. Title                                    : The.Shining.1980.US.DC.REMASTERED.1080p.BluRay.REMUX.AVC.DTS-HD.MA.5.1-FGT
  108. Language                                 : Italian
  109. Service kind                             : Complete Main
  110. Default                                  : No
  111. Forced                                   : No
  112. Audio #5
  113. ID                                       : 6
  114. Format                                   : AC-3
  115. Format/Info                              : Audio Coding 3
  116. Commercial name                          : Dolby Digital
  117. Codec ID                                 : A_AC3
  118. Duration                                 : 2 h 23 min
  119. Bit rate mode                            : Constant
  120. Bit rate                                 : 640 kb/s
  121. Channel(s)                               : 6 channels
  122. Channel layout                           : L R C LFE Ls Rs
  123. Sampling rate                            : 48.0 kHz
  124. Frame rate                               : 31.250 FPS (1536 SPF)
  125. Bit depth                                : 16 bits
  126. Compression mode                         : Lossy
  127. Stream size                              : 658 MiB (2%)
  128. Title                                    : The.Shining.1980.US.DC.REMASTERED.1080p.BluRay.REMUX.AVC.DTS-HD.MA.5.1-FGT
  129. Language                                 : French
  130. Service kind                             : Complete Main
  131. Default                                  : No
  132. Forced                                   : No
  133. Audio #6
  134. ID                                       : 7
  135. Format                                   : AC-3
  136. Format/Info                              : Audio Coding 3
  137. Commercial name                          : Dolby Digital
  138. Codec ID                                 : A_AC3
  139. Duration                                 : 2 h 23 min
  140. Bit rate mode                            : Constant
  141. Bit rate                                 : 640 kb/s
  142. Channel(s)                               : 6 channels
  143. Channel layout                           : L R C LFE Ls Rs
  144. Sampling rate                            : 48.0 kHz
  145. Frame rate                               : 31.250 FPS (1536 SPF)
  146. Bit depth                                : 16 bits
  147. Compression mode                         : Lossy
  148. Stream size                              : 658 MiB (2%)
  149. Title                                    : The.Shining.1980.US.DC.REMASTERED.1080p.BluRay.REMUX.AVC.DTS-HD.MA.5.1-FGT
  150. Language                                 : German
  151. Service kind                             : Complete Main
  152. Default                                  : No
  153. Forced                                   : No
  154. Audio #7
  155. ID                                       : 8
  156. Format                                   : AC-3
  157. Format/Info                              : Audio Coding 3
  158. Commercial name                          : Dolby Digital
  159. Codec ID                                 : A_AC3
  160. Duration                                 : 2 h 23 min
  161. Bit rate mode                            : Constant
  162. Bit rate                                 : 192 kb/s
  163. Channel(s)                               : 2 channels
  164. Channel layout                           : L R
  165. Sampling rate                            : 48.0 kHz
  166. Frame rate                               : 31.250 FPS (1536 SPF)
  167. Bit depth                                : 16 bits
  168. Compression mode                         : Lossy
  169. Stream size                              : 197 MiB (1%)
  170. Title                                    : The.Shining.1980.US.DC.REMASTERED.1080p.BluRay.REMUX.AVC.DTS-HD.MA.5.1-FGT
  171. Language                                 : English
  172. Service kind                             : Complete Main
  173. Default                                  : No
  174. Forced                                   : No
  175. Text #1
  176. ID                                       : 9
  177. Format                                   : UTF-8
  178. Codec ID                                 : S_TEXT/UTF8
  179. Codec ID/Info                            : UTF-8 Plain Text
  180. Duration                                 : 2 h 14 min
  181. Bit rate                                 : 42 b/s
  182. Count of elements                        : 1463
  183. Stream size                              : 42.3 KiB (0%)
  184. Title                                    : English-SRT
  185. Language                                 : English
  186. Default                                  : Yes
  187. Forced                                   : No
  188. Text #2
  189. ID                                       : 10
  190. Format                                   : UTF-8
  191. Codec ID                                 : S_TEXT/UTF8
  192. Codec ID/Info                            : UTF-8 Plain Text
  193. Duration                                 : 2 h 16 min
  194. Bit rate                                 : 43 b/s
  195. Count of elements                        : 1521
  196. Stream size                              : 43.8 KiB (0%)
  197. Title                                    : English-SDH-SRT
  198. Language                                 : English
  199. Default                                  : No
  200. Forced                                   : No
  201. Text #3
  202. ID                                       : 11
  203. Format                                   : PGS
  204. Muxing mode                              : zlib
  205. Codec ID                                 : S_HDMV/PGS
  206. Codec ID/Info                            : Picture based subtitle format used on BDs/HD-DVDs
  207. Duration                                 : 2 h 16 min
  208. Bit rate                                 : 25.1 kb/s
  209. Count of elements                        : 3042
  210. Stream size                              : 24.6 MiB (0%)
  211. Title                                    : English-SDH-PGS
  212. Language                                 : English
  213. Default                                  : No
  214. Forced                                   : No
  215. Text #4
  216. ID                                       : 12
  217. Format                                   : PGS
  218. Muxing mode                              : zlib
  219. Codec ID                                 : S_HDMV/PGS
  220. Codec ID/Info                            : Picture based subtitle format used on BDs/HD-DVDs
  221. Duration                                 : 2 h 18 min
  222. Bit rate                                 : 25.7 kb/s
  223. Count of elements                        : 3050
  224. Stream size                              : 25.4 MiB (0%)
  225. Title                                    : Italian-PGS
  226. Language                                 : Italian
  227. Default                                  : No
  228. Forced                                   : No
  229. Text #5
  230. ID                                       : 13
  231. Format                                   : PGS
  232. Muxing mode                              : zlib
  233. Codec ID                                 : S_HDMV/PGS
  234. Codec ID/Info                            : Picture based subtitle format used on BDs/HD-DVDs
  235. Duration                                 : 2 h 20 min
  236. Bit rate                                 : 19.8 kb/s
  237. Count of elements                        : 2378
  238. Stream size                              : 19.9 MiB (0%)
  239. Title                                    : French-PGS
  240. Language                                 : French
  241. Default                                  : No
  242. Forced                                   : No
  243. Text #6
  244. ID                                       : 14
  245. Format                                   : PGS
  246. Muxing mode                              : zlib
  247. Codec ID                                 : S_HDMV/PGS
  248. Codec ID/Info                            : Picture based subtitle format used on BDs/HD-DVDs
  249. Duration                                 : 2 h 18 min
  250. Bit rate                                 : 15.1 kb/s
  251. Count of elements                        : 1985
  252. Stream size                              : 14.9 MiB (0%)
  253. Title                                    : Japanese-PGS
  254. Language                                 : Japanese
  255. Default                                  : No
  256. Forced                                   : No
  257. Text #7
  258. ID                                       : 15
  259. Format                                   : PGS
  260. Muxing mode                              : zlib
  261. Codec ID                                 : S_HDMV/PGS
  262. Codec ID/Info                            : Picture based subtitle format used on BDs/HD-DVDs
  263. Duration                                 : 2 h 18 min
  264. Bit rate                                 : 19.3 kb/s
  265. Count of elements                        : 2420
  266. Stream size                              : 19.1 MiB (0%)
  267. Title                                    : Dutch-PGS
  268. Language                                 : Dutch
  269. Default                                  : No
  270. Forced                                   : No
  271. Text #8
  272. ID                                       : 16
  273. Format                                   : PGS
  274. Muxing mode                              : zlib
  275. Codec ID                                 : S_HDMV/PGS
  276. Codec ID/Info                            : Picture based subtitle format used on BDs/HD-DVDs
  277. Duration                                 : 2 h 18 min
  278. Bit rate                                 : 26.3 kb/s
  279. Count of elements                        : 3062
  280. Stream size                              : 26.0 MiB (0%)
  281. Title                                    : German-PGS
  282. Language                                 : German
  283. Default                                  : No
  284. Forced                                   : No
  285. Text #9
  286. ID                                       : 17
  287. Format                                   : PGS
  288. Muxing mode                              : zlib
  289. Codec ID                                 : S_HDMV/PGS
  290. Codec ID/Info                            : Picture based subtitle format used on BDs/HD-DVDs
  291. Duration                                 : 2 h 19 min
  292. Bit rate                                 : 20.4 kb/s
  293. Count of elements                        : 2698
  294. Stream size                              : 20.4 MiB (0%)
  295. Title                                    : Chinese-PGS
  296. Language                                 : Chinese
  297. Default                                  : No
  298. Forced                                   : No
  299. Text #10
  300. ID                                       : 18
  301. Format                                   : PGS
  302. Muxing mode                              : zlib
  303. Codec ID                                 : S_HDMV/PGS
  304. Codec ID/Info                            : Picture based subtitle format used on BDs/HD-DVDs
  305. Duration                                 : 2 h 19 min
  306. Bit rate                                 : 16.2 kb/s
  307. Count of elements                        : 2638
  308. Stream size                              : 16.1 MiB (0%)
  309. Title                                    : Korean-PGS
  310. Language                                 : Korean
  311. Default                                  : No
  312. Forced                                   : No
  313. Text #11
  314. ID                                       : 19
  315. Format                                   : PGS
  316. Muxing mode                              : zlib
  317. Codec ID                                 : S_HDMV/PGS
  318. Codec ID/Info                            : Picture based subtitle format used on BDs/HD-DVDs
  319. Duration                                 : 2 h 18 min
  320. Bit rate                                 : 19.6 kb/s
  321. Count of elements                        : 2628
  322. Stream size                              : 19.4 MiB (0%)
  323. Title                                    : Spanish-PGS
  324. Language                                 : Spanish
  325. Default                                  : No
  326. Forced                                   : No
  327. Text #12
  328. ID                                       : 20
  329. Format                                   : PGS
  330. Muxing mode                              : zlib
  331. Codec ID                                 : S_HDMV/PGS
  332. Codec ID/Info                            : Picture based subtitle format used on BDs/HD-DVDs
  333. Duration                                 : 2 h 19 min
  334. Bit rate                                 : 19.4 kb/s
  335. Count of elements                        : 2708
  336. Stream size                              : 19.3 MiB (0%)
  337. Title                                    : Czech-PGS
  338. Language                                 : Czech
  339. Default                                  : No
  340. Forced                                   : No
  341. Text #13
  342. ID                                       : 21
  343. Format                                   : PGS
  344. Muxing mode                              : zlib
  345. Codec ID                                 : S_HDMV/PGS
  346. Codec ID/Info                            : Picture based subtitle format used on BDs/HD-DVDs
  347. Duration                                 : 2 h 20 min
  348. Bit rate                                 : 21.0 kb/s
  349. Count of elements                        : 2494
  350. Stream size                              : 21.2 MiB (0%)
  351. Title                                    : Danish-PGS
  352. Language                                 : Danish
  353. Default                                  : No
  354. Forced                                   : No
  355. Text #14
  356. ID                                       : 22
  357. Format                                   : PGS
  358. Muxing mode                              : zlib
  359. Codec ID                                 : S_HDMV/PGS
  360. Codec ID/Info                            : Picture based subtitle format used on BDs/HD-DVDs
  361. Duration                                 : 2 h 19 min
  362. Bit rate                                 : 16.8 kb/s
  363. Count of elements                        : 1978
  364. Stream size                              : 16.8 MiB (0%)
  365. Title                                    : Finnish-PGS
  366. Language                                 : Finnish
  367. Default                                  : No
  368. Forced                                   : No
  369. Text #15
  370. ID                                       : 23
  371. Format                                   : PGS
  372. Muxing mode                              : zlib
  373. Codec ID                                 : S_HDMV/PGS
  374. Codec ID/Info                            : Picture based subtitle format used on BDs/HD-DVDs
  375. Duration                                 : 2 h 19 min
  376. Bit rate                                 : 21.3 kb/s
  377. Count of elements                        : 2702
  378. Stream size                              : 21.3 MiB (0%)
  379. Title                                    : Hungarian-PGS
  380. Language                                 : Hungarian
  381. Default                                  : No
  382. Forced                                   : No
  383. Text #16
  384. ID                                       : 24
  385. Format                                   : PGS
  386. Muxing mode                              : zlib
  387. Codec ID                                 : S_HDMV/PGS
  388. Codec ID/Info                            : Picture based subtitle format used on BDs/HD-DVDs
  389. Duration                                 : 2 h 19 min
  390. Bit rate                                 : 18.8 kb/s
  391. Count of elements                        : 2252
  392. Stream size                              : 18.8 MiB (0%)
  393. Title                                    : Norwegian-PGS
  394. Language                                 : Norwegian
  395. Default                                  : No
  396. Forced                                   : No
  397. Text #17
  398. ID                                       : 25
  399. Format                                   : PGS
  400. Muxing mode                              : zlib
  401. Codec ID                                 : S_HDMV/PGS
  402. Codec ID/Info                            : Picture based subtitle format used on BDs/HD-DVDs
  403. Duration                                 : 2 h 19 min
  404. Bit rate                                 : 18.5 kb/s
  405. Count of elements                        : 2562
  406. Stream size                              : 18.5 MiB (0%)
  407. Title                                    : Polish-PGS
  408. Language                                 : Polish
  409. Default                                  : No
  410. Forced                                   : No
  411. Text #18
  412. ID                                       : 26
  413. Format                                   : PGS
  414. Muxing mode                              : zlib
  415. Codec ID                                 : S_HDMV/PGS
  416. Codec ID/Info                            : Picture based subtitle format used on BDs/HD-DVDs
  417. Duration                                 : 2 h 18 min
  418. Bit rate                                 : 21.3 kb/s
  419. Count of elements                        : 2710
  420. Stream size                              : 21.1 MiB (0%)
  421. Title                                    : Romanian-PGS
  422. Language                                 : Romanian
  423. Default                                  : No
  424. Forced                                   : No
  425. Text #19
  426. ID                                       : 27
  427. Format                                   : PGS
  428. Muxing mode                              : zlib
  429. Codec ID                                 : S_HDMV/PGS
  430. Codec ID/Info                            : Picture based subtitle format used on BDs/HD-DVDs
  431. Duration                                 : 2 h 18 min
  432. Bit rate                                 : 18.2 kb/s
  433. Count of elements                        : 2338
  434. Stream size                              : 18.0 MiB (0%)
  435. Title                                    : Swedish-PGS
  436. Language                                 : Swedish
  437. Default                                  : No
  438. Forced                                   : No
  439. Text #20
  440. ID                                       : 28
  441. Format                                   : PGS
  442. Muxing mode                              : zlib
  443. Codec ID                                 : S_HDMV/PGS
  444. Codec ID/Info                            : Picture based subtitle format used on BDs/HD-DVDs
  445. Duration                                 : 2 h 18 min
  446. Bit rate                                 : 20.7 kb/s
  447. Count of elements                        : 2716
  448. Stream size                              : 20.4 MiB (0%)
  449. Title                                    : Thai-PGS
  450. Language                                 : Thai
  451. Default                                  : No
  452. Forced                                   : No
  453. Text #21
  454. ID                                       : 29
  455. Format                                   : PGS
  456. Muxing mode                              : zlib
  457. Codec ID                                 : S_HDMV/PGS
  458. Codec ID/Info                            : Picture based subtitle format used on BDs/HD-DVDs
  459. Duration                                 : 2 h 21 min
  460. Bit rate                                 : 42.4 kb/s
  461. Count of elements                        : 3939
  462. Stream size                              : 42.8 MiB (0%)
  463. Title                                    : Chinese-PGS
  464. Language                                 : Chinese
  465. Default                                  : No
  466. Forced                                   : No
  467. Text #22
  468. ID                                       : 30
  469. Format                                   : PGS
  470. Muxing mode                              : zlib
  471. Codec ID                                 : S_HDMV/PGS
  472. Codec ID/Info                            : Picture based subtitle format used on BDs/HD-DVDs
  473. Duration                                 : 2 h 21 min
  474. Bit rate                                 : 37.8 kb/s
  475. Count of elements                        : 3279
  476. Stream size                              : 38.1 MiB (0%)
  477. Title                                    : Japanese-PGS
  478. Language                                 : Japanese
  479. Default                                  : No
  480. Forced                                   : No
  481. Menu
  482. 00:00:00.000                             : en:Chapter 01
  483. 00:03:00.763                             : en:Chapter 02
  484. 00:05:05.471                             : en:Chapter 03
  485. 00:10:34.133                             : en:Chapter 04
  486. 00:12:08.728                             : en:Chapter 05
  487. 00:14:24.613                             : en:Chapter 06
  488. 00:17:38.265                             : en:Chapter 07
  489. 00:20:31.230                             : en:Chapter 08
  490. 00:24:58.955                             : en:Chapter 09
  491. 00:28:52.021                             : en:Chapter 10
  492. 00:34:10.548                             : en:Chapter 11
  493. 00:40:29.176                             : en:Chapter 12
  494. 00:46:01.258                             : en:Chapter 13
  495. 00:46:52.559                             : en:Chapter 14
  496. 00:49:17.663                             : en:Chapter 15
  497. 00:51:16.573                             : en:Chapter 16
  498. 00:57:02.252                             : en:Chapter 17
  499. 00:58:37.180                             : en:Chapter 18
  500. 01:02:37.503                             : en:Chapter 19
  501. 01:06:06.128                             : en:Chapter 20
  502. 01:09:01.095                             : en:Chapter 21
  503. 01:16:52.649                             : en:Chapter 22
  504. 01:22:18.975                             : en:Chapter 23
  505. 01:25:30.250                             : en:Chapter 24
  506. 01:31:41.496                             : en:Chapter 25
  507. 01:34:04.138                             : en:Chapter 26
  508. 01:35:48.951                             : en:Chapter 27
  509. 01:39:30.923                             : en:Chapter 28
  510. 01:43:50.265                             : en:Chapter 29
  511. 01:49:26.726                             : en:Chapter 30
  512. 01:54:24.774                             : en:Chapter 31
  513. 01:58:44.951                             : en:Chapter 32
  514. 02:01:09.887                             : en:Chapter 33
  515. 02:05:30.397                             : en:Chapter 34
  516. 02:07:33.020                             : en:Chapter 35
  517. 02:10:23.899                             : en:Chapter 36
  518. 02:12:10.422                             : en:Chapter 37
  519. 02:15:03.720                             : en:Chapter 38
  520. 02:18:57.370                             : en:Chapter 39
  521. 02:21:24.934                             : en:Chapter 40
复制代码






                                       
                                       

                                       
                                       
                                       




回复

使用道具 举报

懒得打字嘛,点击右侧快捷回复 【右侧内容,后台自定义】
您需要登录后才可以回帖 登录 | 立即加入

本版积分规则

Archiver| |网站地图

Copyright © 2024 Comsenz Inc. Powered by 蓝光电影网

本站内容由用户自主分享和转载自互联网,转载目的在于传递更多信息,并不代表本网赞同其观点和对其真实性负责。

如有侵权、违反国家法律政策行为,请联系我们,我们会第一时间及时清除和处理!

举报反馈邮箱:4k1080.com@gmail.com

快速回复 返回顶部 返回列表