找回密码

查看: 928|回复: 0

[动作] 鬼追人2/五鬼拍门二之邪魔不死 Phantasm.II.1988.1080p.BluRay.X264-AMIABLE 7.65GB

[复制链接]
蓝光币
2048
发表于 2019-6-30 12:13:15 | 显示全部楼层 |阅读模式


◎译  名 鬼追人2 / 五鬼拍门二之邪魔不死 / 幻象2
◎片  名 Phantasm II
◎年  代 1988
◎产  地 美国
◎类  别 行动 / 科幻 / 惊悚 / 可骇 / 奇异
◎语  言 英语
◎上映日期 1988-07-08
◎IMDb评分  6.5/10 from 12054 users
◎IMDb链接  http://www.imdb.com/title/tt0095863
◎豆瓣评分 7.2/10 from 245 users
◎豆瓣链接 https://movie.douban.com/subject/1472800/
◎片  长 97 分钟
◎导  演 丹·卡斯卡拉里 Don Coscarelli
◎主  演 Angus Scrimm
      Reggie Bannister

◎标  签 可骇 | 美国 | 惊悚 | 可骇电影 | 血腥 | 1988 | 奇异 | Cult
◎简  介  
  麦克进入居住了多量僵尸的墓地中,他遭到了来自五湖四海僵尸的进犯。四周一片黝黑,恐惧和惊慌吞噬着他的心。为了保存,他只要拼命地漫无目标四周奔驰。但是,僵尸和恶魔在他气味的指引下牢牢地追逐着他,不知他能否逃诞朝气……
  1. Video
  2. ID                                       : 1
  3. Format                                   : AVC
  4. Format/Info                              : Advanced Video Codec
  5. Format profile                           : [email protected]
  6. Format settings                          : CABAC / 4 Ref Frames
  7. Format settings, CABAC                   : Yes
  8. Format settings, ReFrames                : 4 frames
  9. Codec ID                                 : V_MPEG4/ISO/AVC
  10. Duration                                 : 1 h 36 min
  11. Bit rate                                 : 9 828 kb/s
  12. Width                                    : 1 920 pixels
  13. Height                                   : 1 040 pixels
  14. Display aspect ratio                     : 1.85:1
  15. Frame rate mode                          : Constant
  16. Frame rate                               : 23.976 (24000/1001) FPS
  17. Color space                              : YUV
  18. Chroma subsampling                       : 4:2:0
  19. Bit depth                                : 8 bits
  20. Scan type                                : Progressive
  21. Bits/(Pixel*Frame)                       : 0.205
  22. Stream size                              : 6.48 GiB (85%)
  23. Writing library                          : x264 core 130 r2273 b3065e6
  24. Encoding settings                        : cabac=1 / ref=4 / deblock=1:-3:-3 / analyse=0x3:0x113 / me=umh / subme=8 / psy=1 / psy_rd=1.00:0.00 / mixed_ref=1 / me_range=16 / chroma_me=1 / trellis=1 / 8x8dct=1 / cqm=0 / deadzone=21,11 / fast_pskip=1 / chroma_qp_offset=-2 / threads=12 / lookahead_threads=2 / sliced_threads=0 / nr=0 / decimate=1 / interlaced=0 / bluray_compat=0 / constrained_intra=0 / bframes=3 / b_pyramid=2 / b_adapt=2 / b_bias=0 / direct=3 / weightb=1 / open_gop=0 / weightp=2 / keyint=240 / keyint_min=24 / scenecut=40 / intra_refresh=0 / rc_lookahead=50 / rc=2pass / mbtree=1 / bitrate=9828 / ratetol=1.0 / qcomp=0.60 / qpmin=0 / qpmax=69 / qpstep=4 / cplxblur=20.0 / qblur=0.5 / ip_ratio=1.40 / aq=1:1.00
  25. Language                                 : English
  26. Default                                  : Yes
  27. Forced                                   : No
  28. Audio
  29. ID                                       : 2
  30. Format                                   : DTS
  31. Format/Info                              : Digital Theater Systems
  32. Codec ID                                 : A_DTS
  33. Duration                                 : 1 h 36 min
  34. Bit rate mode                            : Constant
  35. Bit rate                                 : 1 509 kb/s
  36. Channel(s)                               : 6 channels
  37. Channel positions                        : Front: L C R, Side: L R, LFE
  38. Sampling rate                            : 48.0 kHz
  39. Frame rate                               : 93.750 FPS (512 SPF)
  40. Bit depth                                : 24 bits
  41. Compression mode                         : Lossy
  42. Stream size                              : 1.02 GiB (13%)
  43. Language                                 : English
  44. Default                                  : Yes
  45. Forced                                   : No
  46. Text #1
  47. ID                                       : 3
  48. Format                                   : UTF-8
  49. Codec ID                                 : S_TEXT/UTF8
  50. Codec ID/Info                            : UTF-8 Plain Text
  51. Title                                    : SDH
  52. Language                                 : English
  53. Default                                  : No
  54. Forced                                   : No
  55. Text #2
  56. ID                                       : 4
  57. Format                                   : UTF-8
  58. Codec ID                                 : S_TEXT/UTF8
  59. Codec ID/Info                            : UTF-8 Plain Text
  60. Language                                 : English
  61. Default                                  : No
  62. Forced                                   : No
  63. Menu
  64. 00:00:00.000                             : en:00:00:00.000
  65. 00:08:25.839                             : en:00:08:25.839
  66. 00:16:45.046                             : en:00:16:45.046
  67. 00:25:45.002                             : en:00:25:45.002
  68. 00:33:52.656                             : en:00:33:52.656
  69. 00:41:11.886                             : en:00:41:11.886
  70. 00:49:20.583                             : en:00:49:20.583
  71. 00:58:02.104                             : en:00:58:02.104
  72. 01:08:08.501                             : en:01:08:08.501
  73. 01:16:54.318                             : en:01:16:54.318
  74. 01:25:07.894                             : en:01:25:07.894
  75. 01:32:53.651                             : en:01:32:53.651
复制代码









                                       
                                       

                                       
                                       
                                       




回复

使用道具 举报

懒得打字嘛,点击右侧快捷回复 【右侧内容,后台自定义】
您需要登录后才可以回帖 登录 | 立即加入

本版积分规则

Archiver| |网站地图

Copyright © 2024 Comsenz Inc. Powered by 蓝光电影网

本站内容由用户自主分享和转载自互联网,转载目的在于传递更多信息,并不代表本网赞同其观点和对其真实性负责。

如有侵权、违反国家法律政策行为,请联系我们,我们会第一时间及时清除和处理!

举报反馈邮箱:4k1080.com@gmail.com

快速回复 返回顶部 返回列表