找回密码

查看: 1519|回复: 0

[剧情] 式日 Ritual.2000.JAPANESE.1080p.BluRay.REMUX.AVC.DTS-HD.MA.5.0-FGT 31.60GB

[复制链接]
蓝光币
2039
发表于 2019-9-26 06:05:01 | 显示全部楼层 |阅读模式


◎译  名 Shiki Jitsu
◎片  名 式日
◎年  代 2000
◎产  地 日本
◎类  别 剧情
◎语  言 日语
◎上映日期 2000-12-07(日本)
◎IMDb评分  7.5/10 from 1484 users
◎IMDb链接  http://www.imdb.com/title/tt0269856
◎豆瓣评分 7.5/10 from 5009 users
◎豆瓣链接 https://movie.douban.com/subject/1307322/
◎片  长 128分钟
◎导  演 庵野秀明 Hideaki Anno
◎编  剧 藤谷文子 Ayako Fujitani / 庵野秀明 Hideaki Anno
◎主  演 岩井俊二 Shunji Iwai
       藤谷文子 Ayako Fujitani
       村上淳 Jun Murakami
       大竹忍 Shinobu ?take
       松尾铃木 Suzuki Matsuo
       林原惠美 Megumi Hayashibara

◎标  签 岩井俊二 | 日本 | 庵野秀明 | 日本电影 | 式日 | 文艺 | 青春 | 电影
◎简  介  
  人烟零落,阴霾凄凉。在这个与大城市构成鲜明对照的萧索小镇,两个有着分歧布景的男女相遇了。一个是在东京小有成就的电影导演(岩井俊二 饰),但是他没法直视莫大的空虚与失落,渴望临时逃离名利场,寻觅创作的动力与豪情;女孩(藤谷文子 饰)身着红色雨衣,在晴天里也打着雨伞,永久宣称明天是她的生日。恍如遭到命运的驱使,导演走近女孩的生活,并将镜头瞄准了这个藏着万千苦衷和愁绪的精灵。他跟从她走过废墟大楼的楼顶,以及其赖以居住的地下室。焦躁、憎恨、忧愁、哀痛、高兴、失落,各类情感交织,不由分说将他们牢牢缠绕在一路……
  本片按照女配角藤谷文子的小说《回避梦》改编。
◎获奖情况  
  第13届东京国际电影节(2000)
  主比赛单元 最好影片(提名) 庵野秀明
  主比赛单元 最好艺术进献奖 庵野秀明
  1. Video
  2. ID                                       : 1
  3. Format                                   : AVC
  4. Format/Info                              : Advanced Video Codec
  5. Format profile                           : [email protected]
  6. Format settings                          : CABAC / 4 Ref Frames
  7. Format settings, CABAC                   : Yes
  8. Format settings, Reference frames        : 4 frames
  9. Codec ID                                 : V_MPEG4/ISO/AVC
  10. Duration                                 : 2 h 7 min
  11. Bit rate mode                            : Variable
  12. Bit rate                                 : 30.0 Mb/s
  13. Maximum bit rate                         : 39.0 Mb/s
  14. Width                                    : 1 920 pixels
  15. Height                                   : 1 080 pixels
  16. Display aspect ratio                     : 16:9
  17. Frame rate mode                          : Constant
  18. Frame rate                               : 23.976 (24000/1001) FPS
  19. Color space                              : YUV
  20. Chroma subsampling                       : 4:2:0
  21. Bit depth                                : 8 bits
  22. Scan type                                : Progressive
  23. Bits/(Pixel*Frame)                       : 0.603
  24. Stream size                              : 26.8 GiB (85%)
  25. Title                                    : Ritual.2000.JAPANESE.1080p.BluRay.REMUX.AVC.DTS-HD.MA.5.0-FGT
  26. Language                                 : English
  27. Default                                  : No
  28. Forced                                   : No
  29. Audio #1
  30. ID                                       : 2
  31. Format                                   : DTS XLL
  32. Format/Info                              : Digital Theater Systems
  33. Commercial name                          : DTS-HD Master Audio
  34. Codec ID                                 : A_DTS
  35. Duration                                 : 2 h 7 min
  36. Bit rate mode                            : Variable
  37. Bit rate                                 : 3 057 kb/s
  38. Channel(s)                               : 5 channels
  39. Channel layout                           : C L R Ls Rs
  40. Sampling rate                            : 48.0 kHz
  41. Frame rate                               : 93.750 FPS (512 SPF)
  42. Bit depth                                : 24 bits
  43. Compression mode                         : Lossless
  44. Stream size                              : 2.73 GiB (9%)
  45. Title                                    : Ritual.2000.JAPANESE.1080p.BluRay.REMUX.AVC.DTS-HD.MA.5.0-FGT
  46. Language                                 : Japanese
  47. Default                                  : Yes
  48. Forced                                   : No
  49. Audio #2
  50. ID                                       : 3
  51. Format                                   : PCM
  52. Format settings                          : Little / Signed
  53. Codec ID                                 : A_PCM/INT/LIT
  54. Duration                                 : 2 h 7 min
  55. Bit rate mode                            : Constant
  56. Bit rate                                 : 2 304 kb/s
  57. Channel(s)                               : 2 channels
  58. Sampling rate                            : 48.0 kHz
  59. Frame rate                               : 30.000 FPS (1600 SPF)
  60. Bit depth                                : 24 bits
  61. Stream size                              : 2.06 GiB (7%)
  62. Title                                    : Ritual.2000.JAPANESE.1080p.BluRay.REMUX.AVC.DTS-HD.MA.5.0-FGT
  63. Language                                 : Japanese
  64. Default                                  : No
  65. Forced                                   : No
  66. Text
  67. ID                                       : 4
  68. Format                                   : PGS
  69. Muxing mode                              : zlib
  70. Codec ID                                 : S_HDMV/PGS
  71. Codec ID/Info                            : Picture based subtitle format used on BDs/HD-DVDs
  72. Duration                                 : 2 h 7 min
  73. Bit rate                                 : 29.3 kb/s
  74. Count of elements                        : 2768
  75. Stream size                              : 26.8 MiB (0%)
  76. Title                                    : English-PGS
  77. Language                                 : English
  78. Default                                  : Yes
  79. Forced                                   : No
  80. Menu
  81. 00:00:00.000                             : en:Chapter 01
  82. 00:02:29.190                             : en:Chapter 02
  83. 00:03:31.878                             : en:Chapter 03
  84. 00:05:43.885                             : en:Chapter 04
  85. 00:11:46.038                             : en:Chapter 05
  86. 00:14:18.649                             : en:Chapter 06
  87. 00:22:17.169                             : en:Chapter 07
  88. 00:26:18.493                             : en:Chapter 08
  89. 00:32:04.005                             : en:Chapter 09
  90. 00:33:54.365                             : en:Chapter 10
  91. 00:41:52.218                             : en:Chapter 11
  92. 00:43:10.045                             : en:Chapter 12
  93. 00:48:46.048                             : en:Chapter 13
  94. 00:51:25.207                             : en:Chapter 14
  95. 00:52:10.418                             : en:Chapter 15
  96. 00:53:11.980                             : en:Chapter 16
  97. 00:55:10.807                             : en:Chapter 17
  98. 01:00:43.139                             : en:Chapter 18
  99. 01:09:26.328                             : en:Chapter 19
  100. 01:17:18.508                             : en:Chapter 20
  101. 01:34:26.952                             : en:Chapter 21
  102. 01:54:00.834                             : en:Chapter 22
  103. 02:01:49.427                             : en:Chapter 23
  104. 02:07:42.029                             : en:Chapter 24
  105. 02:07:53.457                             : en:Chapter 25
复制代码






                                       
                                       

                                       
                                       
                                       




回复

使用道具 举报

懒得打字嘛,点击右侧快捷回复 【右侧内容,后台自定义】
您需要登录后才可以回帖 登录 | 立即加入

本版积分规则

Archiver| |网站地图

Copyright © 2024 Comsenz Inc. Powered by 蓝光电影网

本站内容由用户自主分享和转载自互联网,转载目的在于传递更多信息,并不代表本网赞同其观点和对其真实性负责。

如有侵权、违反国家法律政策行为,请联系我们,我们会第一时间及时清除和处理!

举报反馈邮箱:4k1080.com@gmail.com

快速回复 返回顶部 返回列表