找回密码

查看: 1235|回复: 0

[喜剧] 一屋兩妻 Happy.Bigamist.1987.CHINESE.1080p.BluRay.x264.DTS-FGT 8.19GB

[复制链接]
蓝光币
2039
发表于 2020-12-3 18:33:56 | 显示全部楼层 |阅读模式


◎译  名 一屋两妻/Happy Bigamist/The Happy Bigamist/一屋二夫/错配鸳鸯
◎片  名 一屋兩妻
◎年  代 1987
◎产  地 中国香港
◎类  别 笑剧
◎语  言 粤语
◎上映日期 1987-04-17(中国香港)
◎IMDb评分  6/10 from 34 users
◎IMDb链接  https://www.imdb.com/title/tt0094354/
◎豆瓣评分 6.5/10 from 1121 users
◎豆瓣链接 https://movie.douban.com/subject/1298507/
◎片  长 98分钟
◎导  演 陈友 Anthony Chan
◎编  剧 罗启锐 Alex Law / 张坚庭 Alfred Cheung / 黄宏基 Keith Wong / 卢永强 Wing-keung Lo / 黄志 Chi Wong
◎主  演 陈友 Anthony Chan
       梅艳芳 Anita Mui
       钟镇涛 Kenny Bee
       夏文汐 Patricia Ha
       郑丹瑞 Lawrence Cheng
       郑文雅 Olivia Cheng
       吴君如 Sandra Ng
       郑孟霞 Mengxia Zheng
       苏杏璇 Hang Shuen So
       秦煌 Wong Chun
       苗侨伟 Kiu Wai Miu
◎标  签 香港 | 梅艳芳 | 香港电影 | 笑剧 | 陈友 | 夏文汐 | 钟镇涛 | 1987
◎简  介


  剧社职员阿信(陈友 饰)刚与妻子仳离未几,便与带略有神经质的女友百佳(梅艳芳 饰)起头了同居生活。新的生活让阿信感应非常舒服,但正当两人浓情深情的时辰,之前搬了进来的前妻惠康(夏文汐 饰)由于买卖失利走头无路,又搬了返来。一边是新的女友,一边是前妻,阿信感应为难不已却又无可何如。同时,剧社台柱华仔(钟镇涛 饰)与惠康一见仍旧,相谈甚欢,不知为何阿信又大为严重,就是这一屋两妻的生活上演了一幕幕闹剧。
  1. Video
  2. ID                                       : 1
  3. Format                                   : AVC
  4. Format/Info                              : Advanced Video Codec
  5. Format profile                           : [email protected]
  6. Format settings                          : CABAC / 4 Ref Frames
  7. Format settings, CABAC                   : Yes
  8. Format settings, Reference frames        : 4 frames
  9. Codec ID                                 : V_MPEG4/ISO/AVC
  10. Duration                                 : 1 h 30 min
  11. Bit rate                                 : 11.5 Mb/s
  12. Width                                    : 1 920 pixels
  13. Height                                   : 1 032 pixels
  14. Display aspect ratio                     : 1.85:1
  15. Frame rate mode                          : Constant
  16. Frame rate                               : 24.000 FPS
  17. Color space                              : YUV
  18. Chroma subsampling                       : 4:2:0
  19. Bit depth                                : 8 bits
  20. Scan type                                : Progressive
  21. Bits/(Pixel*Frame)                       : 0.242
  22. Stream size                              : 7.24 GiB (88%)
  23. Title                                    : Happy.Bigamist.1987.CHINESE.1080p.BluRay.x264.DTS-FGT
  24. Writing library                          : x264 core 148 r2795M aaa9aa8
  25. Encoding settings                        : cabac=1 / ref=4 / deblock=1:-2:-2 / analyse=0x3:0x113 / me=umh / subme=9 / psy=1 / psy_rd=1.00:0.15 / mixed_ref=1 / me_range=16 / chroma_me=1 / trellis=2 / 8x8dct=1 / cqm=0 / deadzone=21,11 / fast_pskip=1 / chroma_qp_offset=-3 / threads=24 / lookahead_threads=3 / sliced_threads=0 / nr=0 / decimate=1 / interlaced=0 / bluray_compat=0 / constrained_intra=0 / bframes=3 / b_pyramid=2 / b_adapt=1 / b_bias=0 / direct=3 / weightb=1 / open_gop=0 / weightp=2 / keyint=250 / keyint_min=25 / scenecut=40 / intra_refresh=0 / rc_lookahead=50 / rc=2pass / mbtree=1 / bitrate=11500 / ratetol=1.0 / qcomp=0.60 / qpmin=0 / qpmax=69 / qpstep=4 / cplxblur=20.0 / qblur=0.5 / vbv_maxrate=31250 / vbv_bufsize=31250 / nal_hrd=none / filler=0 / ip_ratio=1.40 / aq=1:1.00
  26. Language                                 : Chinese
  27. Default                                  : Yes
  28. Forced                                   : No
  29. Audio
  30. ID                                       : 2
  31. Format                                   : DTS
  32. Format/Info                              : Digital Theater Systems
  33. Codec ID                                 : A_DTS
  34. Duration                                 : 1 h 30 min
  35. Bit rate mode                            : Constant
  36. Bit rate                                 : 1 509 kb/s
  37. Channel(s)                               : 6 channels
  38. Channel layout                           : C L R Ls Rs LFE
  39. Sampling rate                            : 48.0 kHz
  40. Frame rate                               : 93.750 FPS (512 SPF)
  41. Bit depth                                : 16 bits
  42. Compression mode                         : Lossy
  43. Stream size                              : 973 MiB (12%)
  44. Title                                    : Happy.Bigamist.1987.CHINESE.1080p.BluRay.x264.DTS-FGT
  45. Language                                 : Chinese
  46. Default                                  : Yes
  47. Forced                                   : No
  48. Text
  49. ID                                       : 3
  50. Format                                   : UTF-8
  51. Codec ID                                 : S_TEXT/UTF8
  52. Codec ID/Info                            : UTF-8 Plain Text
  53. Duration                                 : 1 h 25 min
  54. Bit rate                                 : 43 b/s
  55. Count of elements                        : 1275
  56. Stream size                              : 27.4 KiB (0%)
  57. Language                                 : English
  58. Default                                  : Yes
  59. Forced                                   : No
  60. Menu
  61. 00:00:00.000                             : en:Chapter 01
  62. 00:08:16.875                             : en:Chapter 02
  63. 00:18:03.333                             : en:Chapter 03
  64. 00:22:28.916                             : en:Chapter 04
  65. 00:32:00.583                             : en:Chapter 05
  66. 00:42:14.583                             : en:Chapter 06
  67. 00:49:56.375                             : en:Chapter 07
  68. 00:54:15.666                             : en:Chapter 08
  69. 01:02:23.375                             : en:Chapter 09
  70. 01:07:37.208                             : en:Chapter 10
  71. 01:13:15.875                             : en:Chapter 11
  72. 01:22:23.416                             : en:Chapter 12
复制代码





                                       
                                       

                                       
                                       
                                       




回复

使用道具 举报

懒得打字嘛,点击右侧快捷回复 【右侧内容,后台自定义】
您需要登录后才可以回帖 登录 | 立即加入

本版积分规则

Archiver| |网站地图

Copyright © 2024 Comsenz Inc. Powered by 蓝光电影网

本站内容由用户自主分享和转载自互联网,转载目的在于传递更多信息,并不代表本网赞同其观点和对其真实性负责。

如有侵权、违反国家法律政策行为,请联系我们,我们会第一时间及时清除和处理!

举报反馈邮箱:4k1080.com@gmail.com

快速回复 返回顶部 返回列表