找回密码

查看: 1025|回复: 0

[动作] 战斗列车 The.Train.1964.1080p.BluRay.X264-AMIABLE 13.12GB

[复制链接]
蓝光币
2048
发表于 2019-6-30 11:49:11 | 显示全部楼层 |阅读模式


◎译  名 战役列车 / Le train / 火车 / 铁路敢死队
◎片  名 The Train
◎年  代 1964
◎产  地 美国 / 法国 / 意大利
◎类  别 行动 / 惊悚 / 战争
◎语  言 英语 / 德语
◎上映日期 1964-09-22
◎IMDb评分  7.9/10 from 12594 users
◎IMDb链接  http://www.imdb.com/title/tt0059825
◎豆瓣评分 8.2/10 from 544 users
◎豆瓣链接 https://movie.douban.com/subject/1296016/
◎片  长 133 分钟
◎导  演 阿瑟·佩恩 Arthur Penn / 约翰·弗兰克海默 John Frankenheimer
◎编  剧 Albert Husson / Frank Davis (I) / Franklin Coen
◎主  演 伯特·兰卡斯特 Burt Lancaster
      保罗·斯科菲尔德 Paul Scofield
      让娜·莫罗 Jeanne Moreau
      米切尔·西芒 Michel Simon

◎标  签 美国 | 战争 | 二战 | 法国 | 1964 | 黑白 | 1960s | 意大利
◎简  介  
  以火车为首要叙事舞台的影片中,约翰.弗兰肯海默导演的这部战争行动片是使人难忘的佳构。故事时代布景是二次天下大战末期,德军眼看大势已去,深黯艺术无价的德国批示官保罗.斯科菲尔德乃命令将一批法国名画从博物馆搬回德国去。负责驾驶这列火车的司机伯特.兰卡斯特在周密监视下,仍跟法国铁路局职员及地下流击队配合行动,用滥竽充数及瞒骗等各种方式跟德军斗智,力保国宝不致流出国境之外。全片剧情结构松散,氛围处置松散活泼,常有使人捏一把汗的出色排场出现。两位男配角的表演旗逢对手,张力实足,也表示了各自的爱国心。
◎获奖情况  
  第38届奥斯卡金像奖(1966)
  最好原创剧本(提名) 弗兰克·戴维斯 / 富兰克林·库恩

  1. Video
  2. ID                                       : 1
  3. Format                                   : AVC
  4. Format/Info                              : Advanced Video Codec
  5. Format profile                           : [email protected]
  6. Format settings, CABAC                   : Yes
  7. Format settings, ReFrames                : 4 frames
  8. Codec ID                                 : V_MPEG4/ISO/AVC
  9. Duration                                 : 2 h 13 min
  10. Bit rate                                 : 13.3 Mb/s
  11. Width                                    : 1 792 pixels
  12. Height                                   : 1 080 pixels
  13. Display aspect ratio                     : 5:3
  14. Frame rate mode                          : Constant
  15. Frame rate                               : 23.976 (24000/1001) FPS
  16. Color space                              : YUV
  17. Chroma subsampling                       : 4:2:0
  18. Bit depth                                : 8 bits
  19. Scan type                                : Progressive
  20. Bits/(Pixel*Frame)                       : 0.287
  21. Stream size                              : 12.1 GiB (93%)
  22. Writing library                          : x264 core 142 r2431 ac76440
  23. Encoding settings                        : cabac=1 / ref=4 / deblock=1:-3:-3 / analyse=0x3:0x113 / me=umh / subme=8 / psy=1 / psy_rd=1.00:0.00 / mixed_ref=1 / me_range=16 / chroma_me=1 / trellis=1 / 8x8dct=1 / cqm=0 / deadzone=21,11 / fast_pskip=1 / chroma_qp_offset=-2 / threads=18 / lookahead_threads=3 / sliced_threads=0 / nr=0 / decimate=1 / interlaced=0 / bluray_compat=0 / constrained_intra=0 / bframes=3 / b_pyramid=2 / b_adapt=2 / b_bias=0 / direct=3 / weightb=1 / open_gop=0 / weightp=2 / keyint=240 / keyint_min=24 / scenecut=40 / intra_refresh=0 / rc_lookahead=50 / rc=2pass / mbtree=1 / bitrate=13328 / ratetol=1.0 / qcomp=0.60 / qpmin=0 / qpmax=69 / qpstep=4 / cplxblur=20.0 / qblur=0.5 / ip_ratio=1.40 / aq=1:1.00
  24. Language                                 : English
  25. Default                                  : Yes
  26. Forced                                   : No
  27. Audio
  28. ID                                       : 2
  29. Format                                   : DTS
  30. Format/Info                              : Digital Theater Systems
  31. Mode                                     : 16
  32. Format settings, Endianness              : Big
  33. Codec ID                                 : A_DTS
  34. Duration                                 : 2 h 13 min
  35. Bit rate mode                            : Constant
  36. Bit rate                                 : 768 kb/s
  37. Channel(s)                               : 6 channels
  38. Channel(s)_Original                      : 1 channel
  39. Channel positions                        : Front: C
  40. Sampling rate                            : 48.0 kHz
  41. Frame rate                               : 93.750 FPS (512 spf)
  42. Bit depth                                : 24 bits
  43. Compression mode                         : Lossy
  44. Stream size                              : 732 MiB (5%)
  45. Language                                 : English
  46. Default                                  : Yes
  47. Forced                                   : No
  48. Text #1
  49. ID                                       : 3
  50. Format                                   : UTF-8
  51. Codec ID                                 : S_TEXT/UTF8
  52. Codec ID/Info                            : UTF-8 Plain Text
  53. Title                                    : SDH
  54. Language                                 : English
  55. Default                                  : No
  56. Forced                                   : No
  57. Text #2
  58. ID                                       : 4
  59. Format                                   : UTF-8
  60. Codec ID                                 : S_TEXT/UTF8
  61. Codec ID/Info                            : UTF-8 Plain Text
  62. Language                                 : English
  63. Default                                  : No
  64. Forced                                   : No
  65. Menu
  66. 00:00:00.000                             : en:00:00:00.000
  67. 00:07:54.265                             : en:00:07:54.265
  68. 00:20:00.366                             : en:00:20:00.366
  69. 00:29:30.769                             : en:00:29:30.769
  70. 00:42:55.865                             : en:00:42:55.865
  71. 00:52:28.979                             : en:00:52:28.979
  72. 01:03:02.278                             : en:01:03:02.278
  73. 01:16:50.731                             : en:01:16:50.731
  74. 01:32:03.977                             : en:01:32:03.977
  75. 01:45:32.493                             : en:01:45:32.493
  76. 01:58:23.013                             : en:01:58:23.013
  77. 02:12:34.280                             : en:02:12:34.280
复制代码









                                       
                                       

                                       
                                       
                                       




回复

使用道具 举报

懒得打字嘛,点击右侧快捷回复 【右侧内容,后台自定义】
您需要登录后才可以回帖 登录 | 立即加入

本版积分规则

Archiver| |网站地图

Copyright © 2024 Comsenz Inc. Powered by 蓝光电影网

本站内容由用户自主分享和转载自互联网,转载目的在于传递更多信息,并不代表本网赞同其观点和对其真实性负责。

如有侵权、违反国家法律政策行为,请联系我们,我们会第一时间及时清除和处理!

举报反馈邮箱:4k1080.com@gmail.com

快速回复 返回顶部 返回列表