找回密码

查看: 1751|回复: 0

[剧情] 美女特工队 Guns.1990.REMASTERED.1080p.BluRay.REMUX.AVC.DTS-HD.MA.2.0-FGT 24.68GB

[复制链接]
蓝光币
2048
发表于 2019-9-23 18:33:23 | 显示全部楼层 |阅读模式


◎译  名 美男奸细队
◎片  名 Guns
◎年  代 1990
◎产  地 美国
◎类  别 剧情 / 行动
◎语  言 英语
◎上映日期 1990
◎IMDb评分  4.2/10 from 771 users
◎IMDb链接  http://www.imdb.com/title/tt0099720
◎豆瓣评分 0/10 from 0 users
◎豆瓣链接 https://movie.douban.com/subject/4825607/
◎片  长 96 分钟
◎导  演 Andy Sidaris
◎编  剧 Andy Sidaris
◎主  演 Erik Estrada ...  Juan Degas / Jack of Diamonds
       Dona Speir ...  Donna Hamilton
       Roberta Vasquez ...  Nicole Justin
       Bruce Penhall ...  Bruce Christian
       ...........

◎标  签 美男奸细队 | 美国 | 行动 | 无厘头 | 美国电影 | 情色 | ? | 特务
◎简  介  
  A South American gunrunner uses an island in Hawaii as his base of operations. A squad of beauti***overnment agents is sent to put him out of business.
  1. Video
  2. ID                                       : 1
  3. Format                                   : AVC
  4. Format/Info                              : Advanced Video Codec
  5. Format profile                           : [email protected]
  6. Format settings                          : CABAC / 4 Ref Frames
  7. Format settings, CABAC                   : Yes
  8. Format settings, Reference frames        : 4 frames
  9. Codec ID                                 : V_MPEG4/ISO/AVC
  10. Duration                                 : 1 h 35 min
  11. Bit rate mode                            : Variable
  12. Bit rate                                 : 35.0 Mb/s
  13. Width                                    : 1 920 pixels
  14. Height                                   : 1 080 pixels
  15. Display aspect ratio                     : 16:9
  16. Frame rate mode                          : Constant
  17. Frame rate                               : 23.976 (24000/1001) FPS
  18. Standard                                 : NTSC
  19. Color space                              : YUV
  20. Chroma subsampling                       : 4:2:0
  21. Bit depth                                : 8 bits
  22. Scan type                                : Progressive
  23. Bits/(Pixel*Frame)                       : 0.704
  24. Stream size                              : 23.4 GiB (95%)
  25. Title                                    : Guns.1990.REMASTERED.1080p.BluRay.REMUX.AVC.DTS-HD.MA.2.0-FGT
  26. Language                                 : English
  27. Default                                  : No
  28. Forced                                   : No
  29. Color range                              : Limited
  30. Color primaries                          : BT.709
  31. Transfer characteristics                 : BT.709
  32. Matrix coefficients                      : BT.709
  33. Audio #1
  34. ID                                       : 2
  35. Format                                   : DTS XLL
  36. Format/Info                              : Digital Theater Systems
  37. Commercial name                          : DTS-HD Master Audio
  38. Codec ID                                 : A_DTS
  39. Duration                                 : 1 h 35 min
  40. Bit rate mode                            : Variable
  41. Bit rate                                 : 1 565 kb/s
  42. Channel(s)                               : 2 channels
  43. Channel layout                           : L R
  44. Sampling rate                            : 48.0 kHz
  45. Frame rate                               : 93.750 FPS (512 SPF)
  46. Bit depth                                : 24 bits
  47. Compression mode                         : Lossless
  48. Stream size                              : 1.05 GiB (4%)
  49. Title                                    : Guns.1990.REMASTERED.1080p.BluRay.REMUX.AVC.DTS-HD.MA.2.0-FGT
  50. Language                                 : English
  51. Default                                  : Yes
  52. Forced                                   : No
  53. Audio #2
  54. ID                                       : 3
  55. Format                                   : AC-3
  56. Format/Info                              : Audio Coding 3
  57. Commercial name                          : Dolby Digital
  58. Codec ID                                 : A_AC3
  59. Duration                                 : 1 h 35 min
  60. Bit rate mode                            : Constant
  61. Bit rate                                 : 384 kb/s
  62. Channel(s)                               : 2 channels
  63. Channel layout                           : L R
  64. Sampling rate                            : 48.0 kHz
  65. Frame rate                               : 31.250 FPS (1536 SPF)
  66. Bit depth                                : 16 bits
  67. Compression mode                         : Lossy
  68. Stream size                              : 263 MiB (1%)
  69. Title                                    : Guns.1990.REMASTERED.1080p.BluRay.REMUX.AVC.DTS-HD.MA.2.0-FGT
  70. Language                                 : English
  71. Service kind                             : Complete Main
  72. Default                                  : No
  73. Forced                                   : No
  74. Text
  75. ID                                       : 4
  76. Format                                   : PGS
  77. Muxing mode                              : zlib
  78. Codec ID                                 : S_HDMV/PGS
  79. Codec ID/Info                            : Picture based subtitle format used on BDs/HD-DVDs
  80. Duration                                 : 1 h 35 min
  81. Bit rate                                 : 20.1 kb/s
  82. Count of elements                        : 2548
  83. Stream size                              : 13.7 MiB (0%)
  84. Title                                    : English-PGS
  85. Language                                 : English
  86. Default                                  : Yes
  87. Forced                                   : No
  88. Menu
  89. 00:00:00.000                             : en:Chapter 01
  90. 00:12:31.625                             : en:Chapter 02
  91. 00:23:07.928                             : en:Chapter 03
  92. 00:31:25.717                             : en:Chapter 04
  93. 00:37:07.767                             : en:Chapter 05
  94. 00:44:30.709                             : en:Chapter 06
  95. 00:53:36.588                             : en:Chapter 07
  96. 01:02:50.057                             : en:Chapter 08
  97. 01:12:33.390                             : en:Chapter 09
  98. 01:19:15.167                             : en:Chapter 10
  99. 01:29:23.066                             : en:Chapter 11
  100. 01:32:22.620                             : en:Chapter 12
复制代码






                                       
                                       

                                       
                                       
                                       




回复

使用道具 举报

懒得打字嘛,点击右侧快捷回复 【右侧内容,后台自定义】
您需要登录后才可以回帖 登录 | 立即加入

本版积分规则

Archiver| |网站地图

Copyright © 2024 Comsenz Inc. Powered by 蓝光电影网

本站内容由用户自主分享和转载自互联网,转载目的在于传递更多信息,并不代表本网赞同其观点和对其真实性负责。

如有侵权、违反国家法律政策行为,请联系我们,我们会第一时间及时清除和处理!

举报反馈邮箱:4k1080.com@gmail.com

快速回复 返回顶部 返回列表