找回密码

查看: 1065|回复: 0

[喜剧] 以眼杀人/去伪存真 The.Men.Who.Stare.at.Goats.2009.1080p.BluRay.x264.DTS-FGT 7.73GB

[复制链接]
蓝光币
2039
发表于 2020-12-3 08:35:26 | 显示全部楼层 |阅读模式


◎译  名 以眼杀人/披沙拣金/密探睥死羊/心战军队/盯着山羊的汉子/超异能军队
◎片  名 The Men Who Stare at Goats
◎年  代 2009
◎产  地 美国,英国
◎类  别 笑剧 / 战争
◎语  言 英语
◎上映日期 2009-11-06
◎IMDb评分  6.2/10 from 126370 users
◎IMDb链接  https://www.imdb.com/title/tt1234548/
◎豆瓣评分 6.6/10 from 13644 users
◎豆瓣链接 https://movie.douban.com/subject/3075921/
◎片  长 94 分钟
◎导  演 格兰特·赫斯洛夫 Grant Heslov
◎编  剧 乔恩·容森 Jon Ronson
◎主  演 乔治·克鲁尼 George Clooney
       伊万·麦克格雷格 Ewan McGregor
       凯文·史派西 Kevin Spacey
       杰夫·布里吉斯 Jeff Bridges
       史蒂芬·朗 Stephen Lang
       Michael-David Aragon
       John Macho
       弗兰克·鲍沃斯 Frank Powers
       保罗·J·珀尔特 Paul J. Porter
       Rafael Christian
       Steven Ray Byrd
       Shafik N. Bahou
       梅里克·塔德罗斯 Merik Tadros
       德鲁·塞尔策 Drew Seltzer
       罗伯特·帕特里克 Robert Patrick
       斯蒂芬·鲁特 Stephen Root
       丽贝卡·麦德 Rebecca Mader
       Reginald Huc
       格伦·莫肖尔 Glenn Morshower
       布拉德·格伦伯格 Brad Grunberg
       罗伯特·法里奥尔 Robert Farrior
       Diego Serrano
       尼克·奥弗曼 Nick Offerman
       Matt Newton
       赫拉奇·蒂蒂赞 Hrach Titizian
       布赖恩·泰斯特 Brian Tester
       阿荣·希弗 Arron Shiver
◎标  签 黑色诙谐 | 美国 | EwanMcGregor | GeorgeClooney | 笑剧 | KevinSpacey | 美国电影 | 乔治·克鲁尼
◎简  介


  鲍勃?维尔登(伊万?麦克格雷格Ewan McGregor 饰)是个婚姻失利的美国记者,失望中来到中东,试图想法潜入伊拉克停止战地消息报道以赢回前妻芳心。鲍勃在科威特碰到了之前采访入耳说过的私人修建商林恩·卡萨迪(乔治?克鲁尼 George Clooney 饰),苦苦请求后者带他过境。林恩曾是美国陆军“地球精神军队”的特种兵,在越战老兵嬉皮比尔?迪昂格(詹姆斯?布里奇斯 Jess Bridges 饰)的特别练习方式下追求“绝地军人超才能”,以精神意念克服仇敌;直到甲士拉里?霍珀(凯文?斯帕西 Kevin Spacey 饰)的加入改变了“地球精神军队”的练习方针。鲍勃跟从林恩在伊拉克履历了一系列使人啼笑皆非的变乱与事务,到底林恩能否真有“绝地超才能”呢?
  1. Video
  2. ID                                       : 1
  3. Format                                   : AVC
  4. Format/Info                              : Advanced Video Codec
  5. Format profile                           : [email protected]
  6. Format settings, CABAC                   : Yes
  7. Format settings, ReFrames                : 5 frames
  8. Codec ID                                 : V_MPEG4/ISO/AVC
  9. Duration                                 : 1h 33mn
  10. Bit rate                                 : 10.1 Mbps
  11. Width                                    : 1 920 pixels
  12. Height                                   : 816 pixels
  13. Display aspect ratio                     : 2.35:1
  14. Frame rate mode                          : Constant
  15. Frame rate                               : 23.976 fps
  16. Color space                              : YUV
  17. Chroma subsampling                       : 4:2:0
  18. Bit depth                                : 8 bits
  19. Scan type                                : Progressive
  20. Bits/(Pixel*Frame)                       : 0.269
  21. Stream size                              : 6.59 GiB (85%)
  22. Writing library                          : x264 core 124 r2197 69a0443
  23. Encoding settings                        : cabac=1 / ref=5 / deblock=1:-1:-1 / analyse=0x3:0x113 / me=umh / subme=9 / psy=1 / psy_rd=1.00:0.15 / mixed_ref=1 / me_range=24 / chroma_me=1 / trellis=1 / 8x8dct=1 / cqm=0 / deadzone=21,11 / fast_pskip=1 / chroma_qp_offset=-3 / threads=6 / sliced_threads=0 / nr=0 / decimate=1 / interlaced=0 / bluray_compat=0 / constrained_intra=0 / bframes=3 / b_pyramid=2 / b_adapt=2 / b_bias=0 / direct=3 / weightb=1 / open_gop=0 / weightp=2 / keyint=240 / keyint_min=23 / scenecut=40 / intra_refresh=0 / rc_lookahead=50 / rc=crf / mbtree=1 / crf=18.0 / qcomp=0.60 / qpmin=10 / qpmax=51 / qpstep=4 / ip_ratio=1.40 / aq=1:1.00
  24. Language                                 : English
  25. Default                                  : Yes
  26. Forced                                   : No
  27. Audio
  28. ID                                       : 2
  29. Format                                   : DTS
  30. Format/Info                              : Digital Theater Systems
  31. Mode                                     : 16
  32. Format settings, Endianness              : Big
  33. Codec ID                                 : A_DTS
  34. Duration                                 : 1h 33mn
  35. Bit rate mode                            : Constant
  36. Bit rate                                 : 1 509 Kbps
  37. Channel(s)                               : 6 channels
  38. Channel positions                        : Front: L C R, Side: L R, LFE
  39. Sampling rate                            : 48.0 KHz
  40. Bit depth                                : 24 bits
  41. Compression mode                         : Lossy
  42. Stream size                              : 1 007 MiB (13%)
  43. Language                                 : English
  44. Default                                  : Yes
  45. Forced                                   : No
  46. Menu
  47. 00:00:00.000                             : en:00:00:00.000
  48. 00:06:27.512                             : en:00:06:27.512
  49. 00:16:03.129                             : en:00:16:03.129
  50. 00:22:42.695                             : en:00:22:42.695
  51. 00:33:28.298                             : en:00:33:28.298
  52. 00:40:39.979                             : en:00:40:39.979
  53. 00:47:19.837                             : en:00:47:19.837
  54. 00:56:40.647                             : en:00:56:40.647
  55. 01:04:32.410                             : en:01:04:32.410
  56. 01:11:59.357                             : en:01:11:59.357
  57. 01:19:10.955                             : en:01:19:10.955
  58. 01:25:15.736                             : en:01:25:15.736
复制代码









                                       
                                       

                                       
                                       
                                       




回复

使用道具 举报

懒得打字嘛,点击右侧快捷回复 【右侧内容,后台自定义】
您需要登录后才可以回帖 登录 | 立即加入

本版积分规则

Archiver| |网站地图

Copyright © 2024 Comsenz Inc. Powered by 蓝光电影网

本站内容由用户自主分享和转载自互联网,转载目的在于传递更多信息,并不代表本网赞同其观点和对其真实性负责。

如有侵权、违反国家法律政策行为,请联系我们,我们会第一时间及时清除和处理!

举报反馈邮箱:4k1080.com@gmail.com

快速回复 返回顶部 返回列表