找回密码

查看: 1478|回复: 0

[剧情] 香笺泪 The.Letter.1940.1080p.BluRay.REMUX.AVC.DTS-HD.MA.2.0-FGT 24.54GB

[复制链接]
蓝光币
2048
发表于 2019-9-23 18:29:57 | 显示全部楼层 |阅读模式


◎译  名 香笺泪
◎片  名 The Letter
◎年  代 1940
◎产  地 美国
◎类  别 剧情 / 悬疑 / 犯罪 / 黑色电影
◎语  言 英语
◎上映日期 1940-11-23
◎IMDb评分  7.6/10 from 10519 users
◎IMDb链接  http://www.imdb.com/title/tt0032701
◎豆瓣评分 7.6/10 from 507 users
◎豆瓣链接 https://movie.douban.com/subject/1293014/
◎片  长 95 分钟
◎导  演 William Wyler
◎编  剧 Howard Koch
◎主  演 Bette Davis
       Herbert Marshall
       James Stephenson
       Frieda Inescort

◎标  签 美国 | 黑色电影 | 威廉·惠勒 | 1940s | BetteDavis | 犯罪 | 1940 | WilliamWyler
◎简  介  
  故事发生在布满了异域风情的马来西亚,莱斯利(贝蒂·戴维斯 Bette Davis 饰)在那边和丈夫罗伯特(赫伯特·马歇尔 Herbert Marshall 饰)一路经营着一间橡胶种植园,日子过得非常安逸。某天,罗伯特外出公干,留下莱斯利一人看家,哪晓得很快,便传来了凶讯,莱斯利开枪将一个名叫大卫的汉子给打死了,而莱斯利坚称大卫想要攻击她,她开枪杀人纯属侵占。
  罗伯特相信了莱斯利所言,找到了律师霍华德(詹姆斯·斯蒂芬森 James Stephenson 饰)为妻子辩解,可是,让他们没有想到的是,大卫的妻子哈蒙德太太(盖尔·桑德加德 Gale Sondergaard 饰)手上握有莱斯利和大卫偷情的证据。
◎获奖情况  
  第13届奥斯卡金像奖(1941)
  最好影片(提名)
  最好导演(提名) 威廉·惠勒
  最好女配角(提名) 贝蒂·戴维斯
  最好男配角(提名) 詹姆斯·斯蒂芬森
  黑白片最好摄影(提名) Tony Gaudio
  最好剪辑(提名) Warren Low
  最好原创配乐(提名) 马克思·斯坦纳
  1. Video
  2. ID                                       : 1
  3. Format                                   : AVC
  4. Format/Info                              : Advanced Video Codec
  5. Format profile                           : [email protected]
  6. Format settings                          : CABAC / 4 Ref Frames
  7. Format settings, CABAC                   : Yes
  8. Format settings, Reference frames        : 4 frames
  9. Codec ID                                 : V_MPEG4/ISO/AVC
  10. Duration                                 : 1 h 35 min
  11. Bit rate mode                            : Variable
  12. Bit rate                                 : 34.9 Mb/s
  13. Maximum bit rate                         : 38.0 Mb/s
  14. Width                                    : 1 920 pixels
  15. Height                                   : 1 080 pixels
  16. Display aspect ratio                     : 16:9
  17. Frame rate mode                          : Constant
  18. Frame rate                               : 23.976 (24000/1001) FPS
  19. Color space                              : YUV
  20. Chroma subsampling                       : 4:2:0
  21. Bit depth                                : 8 bits
  22. Scan type                                : Progressive
  23. Bits/(Pixel*Frame)                       : 0.701
  24. Stream size                              : 23.2 GiB (94%)
  25. Title                                    : The.Letter.1940.1080p.BluRay.REMUX.AVC.DTS-HD.MA.2.0-FGT
  26. Language                                 : English
  27. Default                                  : No
  28. Forced                                   : No
  29. Audio
  30. ID                                       : 2
  31. Format                                   : DTS XLL
  32. Format/Info                              : Digital Theater Systems
  33. Commercial name                          : DTS-HD Master Audio
  34. Codec ID                                 : A_DTS
  35. Duration                                 : 1 h 35 min
  36. Bit rate mode                            : Variable
  37. Bit rate                                 : 1 987 kb/s
  38. Channel(s)                               : 2 channels
  39. Channel layout                           : L R
  40. Sampling rate                            : 48.0 kHz
  41. Frame rate                               : 93.750 FPS (512 SPF)
  42. Bit depth                                : 24 bits
  43. Compression mode                         : Lossless
  44. Stream size                              : 1.32 GiB (5%)
  45. Title                                    : The.Letter.1940.1080p.BluRay.REMUX.AVC.DTS-HD.MA.2.0-FGT
  46. Language                                 : English
  47. Default                                  : Yes
  48. Forced                                   : No
  49. Text
  50. ID                                       : 3
  51. Format                                   : PGS
  52. Muxing mode                              : zlib
  53. Codec ID                                 : S_HDMV/PGS
  54. Codec ID/Info                            : Picture based subtitle format used on BDs/HD-DVDs
  55. Duration                                 : 1 h 33 min
  56. Bit rate                                 : 110 kb/s
  57. Count of elements                        : 3160
  58. Stream size                              : 73.2 MiB (0%)
  59. Title                                    : English-PGS
  60. Language                                 : English
  61. Default                                  : Yes
  62. Forced                                   : No
  63. Menu
  64. 00:00:00.000                             : en:Chapter 01
  65. 00:00:59.142                             : en:Chapter 02
  66. 00:05:15.898                             : en:Chapter 03
  67. 00:11:00.534                             : en:Chapter 04
  68. 00:15:53.702                             : en:Chapter 05
  69. 00:18:46.625                             : en:Chapter 06
  70. 00:24:34.973                             : en:Chapter 07
  71. 00:30:42.382                             : en:Chapter 08
  72. 00:38:32.226                             : en:Chapter 09
  73. 00:42:28.546                             : en:Chapter 10
  74. 00:45:49.079                             : en:Chapter 11
  75. 00:48:46.089                             : en:Chapter 12
  76. 00:53:25.994                             : en:Chapter 13
  77. 00:57:40.623                             : en:Chapter 14
  78. 01:03:44.529                             : en:Chapter 15
  79. 01:08:40.157                             : en:Chapter 16
  80. 01:12:44.526                             : en:Chapter 17
  81. 01:16:29.001                             : en:Chapter 18
  82. 01:19:46.406                             : en:Chapter 19
  83. 01:22:06.504                             : en:Chapter 20
  84. 01:26:01.197                             : en:Chapter 21
  85. 01:29:40.416                             : en:Chapter 22
  86. 01:34:38.464                             : en:Chapter 23
  87. 01:35:08.244                             : en:Chapter 24
复制代码






                                       
                                       

                                       
                                       
                                       




回复

使用道具 举报

懒得打字嘛,点击右侧快捷回复 【右侧内容,后台自定义】
您需要登录后才可以回帖 登录 | 立即加入

本版积分规则

Archiver| |网站地图

Copyright © 2024 Comsenz Inc. Powered by 蓝光电影网

本站内容由用户自主分享和转载自互联网,转载目的在于传递更多信息,并不代表本网赞同其观点和对其真实性负责。

如有侵权、违反国家法律政策行为,请联系我们,我们会第一时间及时清除和处理!

举报反馈邮箱:4k1080.com@gmail.com

快速回复 返回顶部 返回列表