找回密码

查看: 1306|回复: 0

[喜剧] 大力水手 Popeye.1980.1080p.BluRay.x264-iFT 18.73GB

[复制链接]
蓝光币
2039
发表于 2020-12-2 15:30:14 | 显示全部楼层 |阅读模式


◎译  名 大力海员
◎片  名 Popeye
◎年  代 1980
◎产  地 美国
◎类  别 笑剧 / 恋爱 / 歌舞 / 家庭
◎语  言 英语
◎上映日期 1980-12-12
◎IMDb评分  5.3/10 from 29213 users
◎IMDb链接  https://www.imdb.com/title/tt0081353/
◎豆瓣评分 6.5/10 from 258 users
◎豆瓣链接 https://movie.douban.com/subject/1297275/
◎片  长 114 分钟
◎导  演 罗伯特·奥特曼 Robert Altman
◎编  剧 朱尔斯·费弗 Jules Feiffer / E.C. Segar
◎主  演 罗宾·威廉姆斯 Robin Williams
       谢莉·杜瓦尔 Shelley Duvall
       雷·沃尔斯顿 Ray Walston
       保罗·杜利 Paul Dooley
       保罗·L·史姑娘 Paul L. Smith
       唐纳德·莫法特 Donald Moffat
       理查德·利伯蒂尼 Richard Libertini
       内德·道德 Ned Dowd
       Margery Bond
       杰克·默瑟 Jack Mercer
       Van Dyke Parks
       Peter Bray
       Allan F. Nicholls
       琳达·亨特 Linda Hunt
       比尔·欧文 Bill Irwin
       Wesley Ivan Hurt
       Susan Kingsley
       多诺万·斯科特 Donovan Scott
       丹尼斯·弗兰茨 Dennis Franz
       罗伯特·福捷 Robert Fortier
       克劳斯·沃尔曼 Klaus Voormann
       大卫·阿金 David Arkin
       雷·库珀 Ray Cooper
       Pietro Torrisi
       帕梅拉·伯勒尔 Pamela Burrell
       麦金太尔·狄克逊 MacIntyre Dixon
       Doug Dillard
       Alan Autry
       韦恩·罗布森 Wayne Robson
◎标  签 美国 | 笑剧 | 大力海员 | 1980 | 动画真人版 | 美国电影 | 罗伯特·奥特曼 | RobertAltman
◎简  介


  The sailor man travels to Sweethaven, falls in love with Olive Oyl, adopts Sweetpea and makes an enemy with Bluto.
  1. Video
  2. ID                                       : 1
  3. Format                                   : AVC
  4. Format/Info                              : Advanced Video Codec
  5. Format profile                           : [email protected]
  6. Format settings                          : CABAC / 5 Ref Frames
  7. Format settings, CABAC                   : Yes
  8. Format settings, Reference frames        : 5 frames
  9. Codec ID                                 : V_MPEG4/ISO/AVC
  10. Duration                                 : 1 h 53 min
  11. Bit rate                                 : 22.5 Mb/s
  12. Width                                    : 1 920 pixels
  13. Height                                   : 816 pixels
  14. Display aspect ratio                     : 2.35:1
  15. Frame rate mode                          : Constant
  16. Frame rate                               : 23.976 (24000/1001/189150) FPS
  17. Color space                              : YUV
  18. Chroma subsampling                       : 4:2:0
  19. Bit depth                                : 8 bits
  20. Scan type                                : Progressive
  21. Bits/(Pixel*Frame)                       : 0.599
  22. Stream size                              : 17.9 GiB (96%)
  23. Writing library                          : x264 core 161 r3018+53 ~ Encoded by Mocunaman in Portugal
  24. Encoding settings                        : cabac=1 / ref=5 / deblock=1:-3:-3 / analyse=0x3:0x133 / me=umh / subme=11 / psy=1 / fade_compensate=0.00 / psy_rd=1.05:0.00 / mixed_ref=1 / me_range=32 / chroma_me=1 / trellis=2 / 8x8dct=1 / cqm=0 / deadzone=21,11 / fast_pskip=0 / chroma_qp_offset=-2 / threads=25 / lookahead_threads=4 / sliced_threads=0 / nr=0 / decimate=0 / interlaced=0 / bluray_compat=0 / constrained_intra=0 / fgo=0 / bframes=9 / b_pyramid=2 / b_adapt=2 / b_bias=0 / direct=3 / weightb=1 / open_gop=0 / weightp=2 / keyint=250 / keyint_min=23 / scenecut=40 / intra_refresh=0 / rc=2pass / mbtree=0 / bitrate=22500 / ratetol=1.0 / qcomp=0.65 / qpmin=0:0:0 / qpmax=69:69:69 / qpstep=4 / cplxblur=20.0 / qblur=0.5 / ip_ratio=1.30 / pb_ratio=1.20 / aq=3:0.70 / aq-sensitivity=10.00 / aq-factor=1.00:1.00:1.00 / aq2=0 / aq3=0 / zones=0,3621,b=1.1/25893,29013,b=1.1/42381,43293,b=1.1/45453,68901,b=1.1/72988,87580,b=1.1/107380,116668,b=1.1/144241,155887,b=1.1
  25. Language                                 : English
  26. Default                                  : Yes
  27. Forced                                   : No
  28. Audio
  29. ID                                       : 2
  30. Format                                   : E-AC-3
  31. Format/Info                              : Enhanced AC-3
  32. Commercial name                          : Dolby Digital Plus
  33. Codec ID                                 : A_EAC3
  34. Duration                                 : 1 h 53 min
  35. Bit rate mode                            : Constant
  36. Bit rate                                 : 1 024 kb/s
  37. Channel(s)                               : 6 channels
  38. Channel layout                           : L R C LFE Ls Rs
  39. Sampling rate                            : 48.0 kHz
  40. Frame rate                               : 31.250 FPS (1536 SPF)
  41. Compression mode                         : Lossy
  42. Stream size                              : 835 MiB (4%)
  43. Title                                    : E-AC3 DD+5.1 1024kbs
  44. Language                                 : English
  45. Service kind                             : Complete Main
  46. Default                                  : Yes
  47. Forced                                   : No
  48. Text #1
  49. ID                                       : 3
  50. Format                                   : UTF-8
  51. Codec ID                                 : S_TEXT/UTF8
  52. Codec ID/Info                            : UTF-8 Plain Text
  53. Duration                                 : 1 h 49 min
  54. Bit rate                                 : 67 b/s
  55. Count of elements                        : 1714
  56. Stream size                              : 54.4 KiB (0%)
  57. Title                                    : Full .srt
  58. Language                                 : English
  59. Default                                  : No
  60. Forced                                   : No
  61. Text #2
  62. ID                                       : 4
  63. Format                                   : UTF-8
  64. Codec ID                                 : S_TEXT/UTF8
  65. Codec ID/Info                            : UTF-8 Plain Text
  66. Duration                                 : 1 h 50 min
  67. Bit rate                                 : 82 b/s
  68. Count of elements                        : 2012
  69. Stream size                              : 66.7 KiB (0%)
  70. Title                                    : SDH .srt
  71. Language                                 : English
  72. Default                                  : No
  73. Forced                                   : No
  74. Text #3
  75. ID                                       : 5
  76. Format                                   : UTF-8
  77. Codec ID                                 : S_TEXT/UTF8
  78. Codec ID/Info                            : UTF-8 Plain Text
  79. Duration                                 : 1 h 50 min
  80. Bit rate                                 : 62 b/s
  81. Count of elements                        : 1527
  82. Stream size                              : 50.7 KiB (0%)
  83. Title                                    : Full .srt
  84. Language                                 : French
  85. Default                                  : No
  86. Forced                                   : No
  87. Menu
  88. 00:00:00.000                             : en:New in Town
  89. 00:10:56.530                             : en:A Room for Rent
  90. 00:17:59.953                             : en:Every Day is Food
  91. 00:29:26.848                             : en:Engagement Party
  92. 00:36:35.735                             : en:Swee\'pea
  93. 00:43:08.794                             : en:Bluto is Very Upset
  94. 00:47:52.369                             : en:The Fights
  95. 00:57:44.961                             : en:Ill Gotten Gains
  96. 01:11:37.835                             : en:Kidnapped
  97. 01:21:31.386                             : en:Me Poppa
  98. 01:33:56.130                             : en:Scab Island Rescue
  99. 01:43:51.225                             : en:Treasures from the Water
复制代码





                                       
                                       

                                       
                                       
                                       




回复

使用道具 举报

懒得打字嘛,点击右侧快捷回复 【右侧内容,后台自定义】
您需要登录后才可以回帖 登录 | 立即加入

本版积分规则

Archiver| |网站地图

Copyright © 2024 Comsenz Inc. Powered by 蓝光电影网

本站内容由用户自主分享和转载自互联网,转载目的在于传递更多信息,并不代表本网赞同其观点和对其真实性负责。

如有侵权、违反国家法律政策行为,请联系我们,我们会第一时间及时清除和处理!

举报反馈邮箱:4k1080.com@gmail.com

快速回复 返回顶部 返回列表