找回密码

查看: 1032|回复: 0

[其他] 墙的呢喃 Mur.Murs.1981.FRENCH.1080p.BluRay.x264-HANDJOB 5.50GB

[复制链接]
蓝光币
2039
发表于 2020-9-18 12:28:53 | 显示全部楼层 |阅读模式


◎译  名 墙的呢喃
◎片  名 Mur murs
◎年  代 1981
◎产  地 法国,美国
◎类  别 记载片
◎语  言 法语,英语
◎上映日期 1981-09-13
◎IMDb评分  7.4/10 from 447 users
◎IMDb链接  https://www.imdb.com/title/tt0081204/
◎豆瓣评分 7.9/10 from 136 users
◎豆瓣链接 https://movie.douban.com/subject/2238785/
◎片  长 Germany: 81 分钟
◎导  演 阿涅斯·瓦尔达 Agnès Varda
◎编  剧 阿涅斯·瓦尔达 Agnès Varda
◎主  演 朱丽叶·贝尔托 Juliet Berto
       马修·德米 Mathieu Demy
◎标  签 记载片 | 法国 | 阿涅斯·瓦尔达 | AgnèsVarda | 记载 | 1981 | 艺术 | Agnès_Varda
◎简  介


  操纵很浅的景深以及部分特写把大型涂鸦、壁画和现实街景实现融合,大概壁画模特走到远景与布景的人物表面重合,这类风趣的视觉游戏与Varda身世摄影有关,或应和了内容:八十年月LA的涂鸦艺术成为分歧族群表达和重塑身份的方式-亦是视觉的假象?画外音中的絮语与影片内容组成了题目Mural Mur的双关.
  1. Video
  2. ID                                       : 1
  3. Format                                   : AVC
  4. Format/Info                              : Advanced Video Codec
  5. Format profile                           : [email protected]
  6. Format settings                          : CABAC / 5 Ref Frames
  7. Format settings, CABAC                   : Yes
  8. Format settings, Reference frames        : 5 frames
  9. Codec ID                                 : V_MPEG4/ISO/AVC
  10. Duration                                 : 1 h 22 min
  11. Bit rate                                 : 8 925 kb/s
  12. Width                                    : 1 476 pixels
  13. Height                                   : 1 080 pixels
  14. Display aspect ratio                     : 4:3
  15. Frame rate mode                          : Constant
  16. Frame rate                               : 23.976 (24000/1001/189150) FPS
  17. Color space                              : YUV
  18. Chroma subsampling                       : 4:2:0
  19. Bit depth                                : 8 bits
  20. Scan type                                : Progressive
  21. Bits/(Pixel*Frame)                       : 0.234
  22. Stream size                              : 5.13 GiB (93%)
  23. Writing library                          : x264 core 157 r2935 545de2f
  24. Encoding settings                        : cabac=1 / ref=5 / deblock=1:-3:-3 / analyse=0x3:0x133 / me=umh / subme=10 / psy=1 / psy_rd=1.00:0.00 / mixed_ref=1 / me_range=32 / chroma_me=1 / trellis=2 / 8x8dct=1 / cqm=0 / deadzone=21,11 / fast_pskip=0 / chroma_qp_offset=-2 / threads=6 / lookahead_threads=1 / sliced_threads=0 / nr=0 / decimate=0 / interlaced=0 / bluray_compat=0 / constrained_intra=0 / bframes=16 / b_pyramid=2 / b_adapt=2 / b_bias=0 / direct=3 / weightb=1 / open_gop=0 / weightp=2 / keyint=240 / keyint_min=24 / scenecut=40 / intra_refresh=0 / rc_lookahead=60 / rc=crf / mbtree=0 / crf=23.0 / qcomp=0.60 / qpmin=0 / qpmax=69 / qpstep=4 / vbv_maxrate=62500 / vbv_bufsize=78125 / crf_max=0.0 / nal_hrd=none / filler=0 / ip_ratio=1.40 / pb_ratio=1.30 / aq=2:0.80
  25. Default                                  : Yes
  26. Forced                                   : No
  27. Color range                              : Limited
  28. Color primaries                          : BT.709
  29. Transfer characteristics                 : BT.709
  30. Matrix coefficients                      : BT.709
  31. Audio #1
  32. ID                                       : 2
  33. Format                                   : FLAC
  34. Format/Info                              : Free Lossless Audio Codec
  35. Codec ID                                 : A_FLAC
  36. Duration                                 : 1 h 22 min
  37. Bit rate mode                            : Variable
  38. Bit rate                                 : 259 kb/s
  39. Channel(s)                               : 1 channel
  40. Sampling rate                            : 48.0 kHz
  41. Frame rate                               : 11.719 FPS (4096 SPF)
  42. Bit depth                                : 16 bits
  43. Compression mode                         : Lossless
  44. Stream size                              : 153 MiB (3%)
  45. Writing library                          : libFLAC 1.2.1 (UTC 2007-09-17)
  46. Language                                 : French
  47. Default                                  : Yes
  48. Forced                                   : No
  49. Audio #2
  50. ID                                       : 3
  51. Format                                   : AC-3
  52. Format/Info                              : Audio Coding 3
  53. Commercial name                          : Dolby Digital
  54. Codec ID                                 : A_AC3
  55. Duration                                 : 1 h 22 min
  56. Bit rate mode                            : Constant
  57. Bit rate                                 : 384 kb/s
  58. Channel(s)                               : 1 channel
  59. Channel layout                           : C
  60. Sampling rate                            : 48.0 kHz
  61. Frame rate                               : 31.250 FPS (1536 SPF)
  62. Compression mode                         : Lossy
  63. Stream size                              : 226 MiB (4%)
  64. Title                                    : English Dub
  65. Language                                 : English
  66. Service kind                             : Complete Main
  67. Default                                  : No
  68. Forced                                   : No
  69. Text
  70. ID                                       : 4
  71. Format                                   : UTF-8
  72. Codec ID                                 : S_TEXT/UTF8
  73. Codec ID/Info                            : UTF-8 Plain Text
  74. Duration                                 : 1 h 20 min
  75. Bit rate                                 : 29 b/s
  76. Count of elements                        : 363
  77. Stream size                              : 17.2 KiB (0%)
  78. Title                                    : English [non-English scenes]
  79. Language                                 : English
  80. Default                                  : Yes
  81. Forced                                   : No
  82. Menu
  83. 00:00:00.000                             : :Dreams of Los Angeles
  84. 00:08:06.361                             : :Venice Beach
  85. 00:14:14.812                             : :High-school murals
  86. 00:17:45.189                             : :Homage to the dead
  87. 00:22:35.229                             : :The great wall
  88. 00:27:33.193                             : :The superstars
  89. 00:37:37.505                             : :Business of painting
  90. 00:42:38.222                             : :Cracking open the walls
  91. 00:50:18.307                             : :Bride and groom
  92. 00:54:24.720                             : :Intersections
  93. 01:02:12.354                             : :Pig portraits
  94. 01:11:01.966                             : :Asco
  95. 01:16:13.527                             : :The disappearing landscape
复制代码






                                       
                                       

                                       
                                       
                                       




回复

使用道具 举报

懒得打字嘛,点击右侧快捷回复 【右侧内容,后台自定义】
您需要登录后才可以回帖 登录 | 立即加入

本版积分规则

Archiver| |网站地图

Copyright © 2024 Comsenz Inc. Powered by 蓝光电影网

本站内容由用户自主分享和转载自互联网,转载目的在于传递更多信息,并不代表本网赞同其观点和对其真实性负责。

如有侵权、违反国家法律政策行为,请联系我们,我们会第一时间及时清除和处理!

举报反馈邮箱:4k1080.com@gmail.com

快速回复 返回顶部 返回列表