找回密码

查看: 1956|回复: 0

[剧情] 破碎的玻璃 Breaking.Glass.1980.1080p.BluRay.REMUX.AVC.LPCM.2.0-FGT 19.30GB

[复制链接]
蓝光币
2039
发表于 2019-9-22 03:41:11 | 显示全部楼层 |阅读模式


◎译  名 破裂的玻璃
◎片  名 Breaking Glass
◎年  代 1980
◎产  地 英国
◎类  别 剧情
◎语  言 英语
◎上映日期 1980
◎IMDb评分  6.9/10 from 1049 users
◎IMDb链接  http://www.imdb.com/title/tt0080469
◎豆瓣评分 0/10 from 0 users
◎豆瓣链接 https://movie.douban.com/subject/5051532/
◎片  长 104 分钟
◎导  演 Brian Gibson
◎编  剧 Brian Gibson
◎主  演 Hazel O'Connor
       菲尔·丹尼尔斯 Phil Daniels
       乔·芬奇 Jon Finch
       乔纳森·普雷斯 Jonathan Pryce

◎标  签 音乐 | 英国 | 美国电影 | 朋克 | P-LocarnoA入围主比赛 | P-CannesE非比赛&半夜展映 | Gibson | Brian
◎简  介  
  A rock singer is determined to rise to the top of the profession, letting nothing stand in the way of that goal.
  1. Video
  2. ID                                       : 1
  3. Format                                   : AVC
  4. Format/Info                              : Advanced Video Codec
  5. Format profile                           : [email protected]
  6. Format settings                          : CABAC / 4 Ref Frames
  7. Format settings, CABAC                   : Yes
  8. Format settings, Reference frames        : 4 frames
  9. Codec ID                                 : V_MPEG4/ISO/AVC
  10. Duration                                 : 1 h 33 min
  11. Bit rate mode                            : Variable
  12. Bit rate                                 : 27.1 Mb/s
  13. Maximum bit rate                         : 35.0 Mb/s
  14. Width                                    : 1 920 pixels
  15. Height                                   : 1 080 pixels
  16. Display aspect ratio                     : 16:9
  17. Frame rate mode                          : Constant
  18. Frame rate                               : 23.976 (24000/1001) FPS
  19. Standard                                 : NTSC
  20. Color space                              : YUV
  21. Chroma subsampling                       : 4:2:0
  22. Bit depth                                : 8 bits
  23. Scan type                                : Progressive
  24. Bits/(Pixel*Frame)                       : 0.545
  25. Stream size                              : 17.8 GiB (92%)
  26. Title                                    : Breaking.Glass.1980.1080p.BluRay.REMUX.AVC.LPCM.2.0-FGT
  27. Language                                 : English
  28. Default                                  : No
  29. Forced                                   : No
  30. Color range                              : Limited
  31. Color primaries                          : BT.709
  32. Transfer characteristics                 : BT.709
  33. Matrix coefficients                      : BT.709
  34. Audio
  35. ID                                       : 2
  36. Format                                   : PCM
  37. Format settings                          : Little / Signed
  38. Codec ID                                 : A_PCM/INT/LIT
  39. Duration                                 : 1 h 33 min
  40. Bit rate mode                            : Constant
  41. Bit rate                                 : 2 304 kb/s
  42. Channel(s)                               : 2 channels
  43. Sampling rate                            : 48.0 kHz
  44. Frame rate                               : 30.000 FPS (1600 SPF)
  45. Bit depth                                : 24 bits
  46. Stream size                              : 1.51 GiB (8%)
  47. Title                                    : Breaking.Glass.1980.1080p.BluRay.REMUX.AVC.LPCM.2.0-FGT
  48. Language                                 : English
  49. Default                                  : Yes
  50. Forced                                   : No
  51. Menu
  52. 00:00:00.000                             : en:Chapter 01
  53. 00:10:50.858                             : en:Chapter 02
  54. 00:19:47.769                             : en:Chapter 03
  55. 00:37:13.022                             : en:Chapter 04
  56. 00:59:05.542                             : en:Chapter 05
  57. 01:10:36.482                             : en:Chapter 06
  58. 01:20:26.363                             : en:Chapter 07
  59. 01:25:39.217                             : en:Chapter 08
  60. 01:33:56.380                             : en:Chapter 09
复制代码






                                       
                                       

                                       
                                       
                                       




回复

使用道具 举报

懒得打字嘛,点击右侧快捷回复 【右侧内容,后台自定义】
您需要登录后才可以回帖 登录 | 立即加入

本版积分规则

Archiver| |网站地图

Copyright © 2024 Comsenz Inc. Powered by 蓝光电影网

本站内容由用户自主分享和转载自互联网,转载目的在于传递更多信息,并不代表本网赞同其观点和对其真实性负责。

如有侵权、违反国家法律政策行为,请联系我们,我们会第一时间及时清除和处理!

举报反馈邮箱:4k1080.com@gmail.com

快速回复 返回顶部 返回列表