找回密码

查看: 1035|回复: 0

[其他] 千里长征 Cattle.Empire.1958.1080p.BluRay.x264-HANDJOB 6.90GB

[复制链接]
蓝光币
2048
发表于 2020-9-17 17:32:37 | 显示全部楼层 |阅读模式


◎译  名 千里长征
◎片  名 Cattle Empire
◎年  代 1958
◎产  地 美国
◎类  别 西部
◎语  言 英语
◎上映日期 1958-04-28(瑞典)
◎IMDb评分  6.2/10 from 503 users
◎IMDb链接  https://www.imdb.com/title/tt0051461/
◎豆瓣评分 /10 from 0 users
◎豆瓣链接 https://movie.douban.com/subject/25934922/
◎片  长 83分钟
◎导  演 查尔斯·马奎斯·沃伦 Charles Marquis Warren
◎编  剧 安德烈·博希姆 Endre Bohem
◎主  演 乔尔·麦克雷 Joel McCrea
       格洛瑞亚·陶伯特 Gloria Talbott
◎简  介


  After serving a five year prison sentence for allowing his men to destroy a town in a drunken spree, a trail boss is hired by the same town's leading citizen to drive their cattle to Fort Clemson. Complicating matters, a rival cattle baron also hires the cattle driver to lead his herd.
  1. Video
  2. ID                                       : 1
  3. Format                                   : AVC
  4. Format/Info                              : Advanced Video Codec
  5. Format profile                           : [email protected]
  6. Format settings                          : CABAC / 5 Ref Frames
  7. Format settings, CABAC                   : Yes
  8. Format settings, Reference frames        : 5 frames
  9. Codec ID                                 : V_MPEG4/ISO/AVC
  10. Duration                                 : 1 h 23 min
  11. Bit rate                                 : 11.6 Mb/s
  12. Width                                    : 1 920 pixels
  13. Height                                   : 812 pixels
  14. Display aspect ratio                     : 2.35:1
  15. Frame rate mode                          : Constant
  16. Frame rate                               : 23.976 (24000/1001/189150) FPS
  17. Color space                              : YUV
  18. Chroma subsampling                       : 4:2:0
  19. Bit depth                                : 8 bits
  20. Scan type                                : Progressive
  21. Bits/(Pixel*Frame)                       : 0.312
  22. Stream size                              : 6.77 GiB (98%)
  23. Writing library                          : x264 core 148
  24. Encoding settings                        : cabac=1 / ref=5 / deblock=1:-3:-3 / analyse=0x3:0x133 / me=umh / subme=10 / psy=1 / psy_rd=1.00:0.00 / mixed_ref=1 / me_range=32 / chroma_me=1 / trellis=2 / 8x8dct=1 / cqm=0 / deadzone=21,11 / fast_pskip=0 / chroma_qp_offset=-2 / threads=12 / lookahead_threads=3 / sliced_threads=0 / nr=0 / decimate=0 / interlaced=0 / bluray_compat=0 / constrained_intra=0 / bframes=16 / b_pyramid=2 / b_adapt=2 / b_bias=0 / direct=3 / weightb=1 / open_gop=0 / weightp=2 / keyint=240 / keyint_min=24 / scenecut=40 / intra_refresh=0 / rc_lookahead=60 / rc=crf / mbtree=0 / crf=15.0 / qcomp=0.60 / qpmin=0 / qpmax=69 / qpstep=4 / vbv_maxrate=62500 / vbv_bufsize=78125 / crf_max=0.0 / nal_hrd=none / filler=0 / ip_ratio=1.40 / pb_ratio=1.30 / aq=2:1.00
  25. Default                                  : Yes
  26. Forced                                   : No
  27. Color range                              : Limited
  28. Color primaries                          : BT.709
  29. Transfer characteristics                 : BT.709
  30. Matrix coefficients                      : BT.709
  31. Audio
  32. ID                                       : 2
  33. Format                                   : FLAC
  34. Format/Info                              : Free Lossless Audio Codec
  35. Codec ID                                 : A_FLAC
  36. Duration                                 : 1 h 23 min
  37. Bit rate mode                            : Variable
  38. Bit rate                                 : 217 kb/s
  39. Channel(s)                               : 2 channels
  40. Channel layout                           : L R
  41. Sampling rate                            : 48.0 kHz
  42. Frame rate                               : 11.719 FPS (4096 SPF)
  43. Bit depth                                : 16 bits
  44. Compression mode                         : Lossless
  45. Stream size                              : 129 MiB (2%)
  46. Writing library                          : libFLAC 1.2.1 (UTC 2007-09-17)
  47. Language                                 : English
  48. Default                                  : Yes
  49. Forced                                   : No
  50. Text
  51. ID                                       : 3
  52. Format                                   : PGS
  53. Muxing mode                              : zlib
  54. Codec ID                                 : S_HDMV/PGS
  55. Codec ID/Info                            : Picture based subtitle format used on BDs/HD-DVDs
  56. Duration                                 : 1 h 21 min
  57. Bit rate                                 : 23.3 kb/s
  58. Count of elements                        : 1718
  59. Stream size                              : 13.5 MiB (0%)
  60. Language                                 : French
  61. Default                                  : No
  62. Forced                                   : No
  63. Menu
  64. 00:00:00.000                             : en:Chapter 01
  65. 00:01:30.173                             : en:Chapter 02
  66. 00:08:59.705                             : en:Chapter 03
  67. 00:16:51.552                             : en:Chapter 04
  68. 00:23:31.493                             : en:Chapter 05
  69. 00:27:18.178                             : en:Chapter 06
  70. 00:33:24.585                             : en:Chapter 07
  71. 00:40:55.744                             : en:Chapter 08
  72. 00:46:31.622                             : en:Chapter 09
  73. 00:51:10.400                             : en:Chapter 10
  74. 00:56:10.075                             : en:Chapter 11
  75. 01:01:08.373                             : en:Chapter 12
  76. 01:11:14.728                             : en:Chapter 13
  77. 01:19:21.715                             : en:Chapter 14
复制代码






                                       
                                       

                                       
                                       
                                       




回复

使用道具 举报

懒得打字嘛,点击右侧快捷回复 【右侧内容,后台自定义】
您需要登录后才可以回帖 登录 | 立即加入

本版积分规则

Archiver| |网站地图

Copyright © 2024 Comsenz Inc. Powered by 蓝光电影网

本站内容由用户自主分享和转载自互联网,转载目的在于传递更多信息,并不代表本网赞同其观点和对其真实性负责。

如有侵权、违反国家法律政策行为,请联系我们,我们会第一时间及时清除和处理!

举报反馈邮箱:4k1080.com@gmail.com

快速回复 返回顶部 返回列表