找回密码

查看: 1511|回复: 0

[剧情] 地方英雄/南方英雄 Local.Hero.1983.1080p.BluRay.REMUX.AVC.DTS-HD.MA.5.1-FGT 31.95GB

[复制链接]
蓝光币
2048
发表于 2019-9-19 16:23:43 | 显示全部楼层 |阅读模式


◎译  名 地方豪杰 / 南方豪杰 / 小镇风浪 / 当地豪杰 / 当地豪杰
◎片  名 Local Hero
◎年  代 1983
◎产  地 英国
◎类  别 剧情 / 笑剧
◎语  言 英语 / 俄语 / 日语
◎上映日期 1983-02-17
◎IMDb评分  7.4/10 from 18932 users
◎IMDb链接  http://www.imdb.com/title/tt0085859
◎豆瓣评分 7.6/10 from 237 users
◎豆瓣链接 https://movie.douban.com/subject/1300467/
◎片  长 111 分钟
◎导  演 比尔·福塞斯 Bill Forsyth
◎编  剧 比尔·福塞斯 Bill Forsyth
◎主  演 伯特·兰卡斯特 Burt Lancaster
       彼得·里格特 Peter Riegert
       Fulton Mackay
       丹尼斯·劳森 Denis Lawson
       Norman Chancer
       彼得·卡帕尔迪 Peter Capaldi
       Rikki Fulton
       亚力克斯·诺顿 Alex Norton
       詹妮·西格芙 Jenny Seagrove
       Jennifer Black
       Christopher Rozycki
       Gyearbuor Asante
       约翰·M·杰克逊 John M. Jackson
       Dan Ammerman
       Harlan Jordan
       Ann Scott-Jones
       Ian Stewart
       乔纳森·沃森 Jonathan Watson
       Alan Clark
       Buddy Quaid
       约翰·戈登·辛克莱尔 John Gordon Sinclair
       Sandra Voe

◎标  签 英国 | 笑剧 | 英国电影 | 苏格兰 | 1980s | 1983 | 电影 | BillForsyth
◎简  介  
  影片描写一位美国贩子营私司之命来到满格兰海岸洽商收买地盘兴修石油工场,当地的风土文物和居民的起居作息跟他这个城市人很不调和,让他感觉此行无聊透顶。不意公司总裁亲到小镇观察后改变主张,想在当开办一所天文学院。贩子回到美国的居所后,也不由得回忆起一望无边的满格兰海岸。
  1. Video
  2. ID                                       : 1
  3. Format                                   : AVC
  4. Format/Info                              : Advanced Video Codec
  5. Format profile                           : [email protected]
  6. Format settings                          : CABAC / 4 Ref Frames
  7. Format settings, CABAC                   : Yes
  8. Format settings, Reference frames        : 4 frames
  9. Codec ID                                 : V_MPEG4/ISO/AVC
  10. Duration                                 : 1 h 51 min
  11. Bit rate mode                            : Variable
  12. Bit rate                                 : 33.0 Mb/s
  13. Maximum bit rate                         : 36.0 Mb/s
  14. Width                                    : 1 920 pixels
  15. Height                                   : 1 080 pixels
  16. Display aspect ratio                     : 16:9
  17. Frame rate mode                          : Constant
  18. Frame rate                               : 23.976 (24000/1001) FPS
  19. Color space                              : YUV
  20. Chroma subsampling                       : 4:2:0
  21. Bit depth                                : 8 bits
  22. Scan type                                : Progressive
  23. Bits/(Pixel*Frame)                       : 0.664
  24. Stream size                              : 25.7 GiB (81%)
  25. Title                                    : Local.Hero.1983.1080p.BluRay.REMUX.AVC.DTS-HD.MA.5.1-FGT
  26. Language                                 : English
  27. Default                                  : No
  28. Forced                                   : No
  29. Audio #1
  30. ID                                       : 2
  31. Format                                   : DTS XLL
  32. Format/Info                              : Digital Theater Systems
  33. Commercial name                          : DTS-HD Master Audio
  34. Codec ID                                 : A_DTS
  35. Duration                                 : 1 h 51 min
  36. Bit rate mode                            : Variable
  37. Bit rate                                 : 3 356 kb/s
  38. Channel(s)                               : 6 channels
  39. Channel layout                           : C L R Ls Rs LFE
  40. Sampling rate                            : 48.0 kHz
  41. Frame rate                               : 93.750 FPS (512 SPF)
  42. Bit depth                                : 24 bits
  43. Compression mode                         : Lossless
  44. Stream size                              : 2.62 GiB (8%)
  45. Title                                    : Local.Hero.1983.1080p.BluRay.REMUX.AVC.DTS-HD.MA.5.1-FGT
  46. Language                                 : English
  47. Default                                  : Yes
  48. Forced                                   : No
  49. Audio #2
  50. ID                                       : 3
  51. Format                                   : PCM
  52. Format settings                          : Little / Signed
  53. Codec ID                                 : A_PCM/INT/LIT
  54. Duration                                 : 1 h 51 min
  55. Bit rate mode                            : Constant
  56. Bit rate                                 : 2 304 kb/s
  57. Channel(s)                               : 2 channels
  58. Sampling rate                            : 48.0 kHz
  59. Frame rate                               : 30.000 FPS (1600 SPF)
  60. Bit depth                                : 24 bits
  61. Stream size                              : 1.79 GiB (6%)
  62. Title                                    : Local.Hero.1983.1080p.BluRay.REMUX.AVC.DTS-HD.MA.5.1-FGT
  63. Language                                 : English
  64. Default                                  : No
  65. Forced                                   : No
  66. Audio #3
  67. ID                                       : 4
  68. Format                                   : PCM
  69. Format settings                          : Little / Signed
  70. Codec ID                                 : A_PCM/INT/LIT
  71. Duration                                 : 1 h 51 min
  72. Bit rate mode                            : Constant
  73. Bit rate                                 : 2 304 kb/s
  74. Channel(s)                               : 2 channels
  75. Sampling rate                            : 48.0 kHz
  76. Frame rate                               : 30.000 FPS (1600 SPF)
  77. Bit depth                                : 24 bits
  78. Stream size                              : 1.79 GiB (6%)
  79. Title                                    : Local.Hero.1983.1080p.BluRay.REMUX.AVC.DTS-HD.MA.5.1-FGT
  80. Language                                 : English
  81. Default                                  : No
  82. Forced                                   : No
  83. Text
  84. ID                                       : 5
  85. Format                                   : PGS
  86. Muxing mode                              : zlib
  87. Codec ID                                 : S_HDMV/PGS
  88. Codec ID/Info                            : Picture based subtitle format used on BDs/HD-DVDs
  89. Duration                                 : 1 h 48 min
  90. Bit rate                                 : 51.2 kb/s
  91. Count of elements                        : 3394
  92. Stream size                              : 39.8 MiB (0%)
  93. Title                                    : English-PGS
  94. Language                                 : English
  95. Default                                  : Yes
  96. Forced                                   : No
  97. Menu
  98. 00:00:00.000                             : en:Chapter 01
  99. 00:10:15.865                             : en:Chapter 02
  100. 00:24:39.227                             : en:Chapter 03
  101. 00:41:06.046                             : en:Chapter 04
  102. 00:58:03.605                             : en:Chapter 05
  103. 01:11:56.186                             : en:Chapter 06
  104. 01:27:03.635                             : en:Chapter 07
  105. 01:40:47.041                             : en:Chapter 08
  106. 01:51:28.181                             : en:Chapter 09
复制代码






                                       
                                       

                                       
                                       
                                       




回复

使用道具 举报

懒得打字嘛,点击右侧快捷回复 【右侧内容,后台自定义】
您需要登录后才可以回帖 登录 | 立即加入

本版积分规则

Archiver| |网站地图

Copyright © 2024 Comsenz Inc. Powered by 蓝光电影网

本站内容由用户自主分享和转载自互联网,转载目的在于传递更多信息,并不代表本网赞同其观点和对其真实性负责。

如有侵权、违反国家法律政策行为,请联系我们,我们会第一时间及时清除和处理!

举报反馈邮箱:4k1080.com@gmail.com

快速回复 返回顶部 返回列表