找回密码

查看: 1182|回复: 0

[动作] 江湖龍虎鬥 Flaming.Brothers.1987.CHINESE.1080p.BluRay.x264.DTS-FGT 9.25GB

[复制链接]
蓝光币
2048
发表于 2019-6-27 23:55:48 | 显示全部楼层 |阅读模式


◎译  名 江湖龙虎斗 / Flaming Brothers
◎片  名 江湖龍虎鬥
◎年  代 1987
◎产  地 香港
◎类  别 行动 / 犯罪
◎语  言 粤语
◎上映日期 1987-07-30
◎IMDb评分  6.4/10 from 486 users
◎IMDb链接  http://www.imdb.com/title/tt0093305
◎豆瓣评分 6.7/10 from 2635 users
◎豆瓣链接 https://movie.douban.com/subject/1306209/
◎片  长 99 分钟
◎导  演 张同祖 Tongzu Zhang
◎编  剧 王家卫 Kar Wai Wong
◎主  演 周润发
      邓名誉 Alan Tang
      谢贤
      徐少强
      甄妮
      夏文汐
      陈欣健 Philip Chan

◎标  签 周润发 | 香港 | 香港电影 | 行动 | 王家卫 | 邓名誉 | 1987 | 夏文汐
◎简  介  
  阿伦(邓名誉 饰)和阿天(周润发 饰)自小在澳门陌头流浪长大,两人相依为命,情比兄弟,发愤要闯出一番六合。就在二人终究高人一等,风生水起的时辰,阿伦却因杀了黑帮老迈高老四(谢贤 饰)的手下而在泰国遭到追杀。与此同时,阿天在儿时经常顽耍的修女院原址,碰到了童年的玩伴卡希(夏文汐 饰),两人互生倾慕,订下毕生。卡希希望阿天在成婚后转做正行,二人一路分开澳门,去香港生活。就在阿天预备和阿伦离别之时,高老四对阿伦的追杀愈演愈烈。浩劫当前,兄弟二人终极又会何去何从……
  1. Video
  2. ID                                       : 1
  3. Format                                   : AVC
  4. Format/Info                              : Advanced Video Codec
  5. Format profile                           : [email protected]
  6. Format settings                          : CABAC / 4 Ref Frames
  7. Format settings, CABAC                   : Yes
  8. Format settings, ReFrames                : 4 frames
  9. Codec ID                                 : V_MPEG4/ISO/AVC
  10. Duration                                 : 1 h 41 min
  11. Bit rate                                 : 11.5 Mb/s
  12. Width                                    : 1 920 pixels
  13. Height                                   : 1 038 pixels
  14. Display aspect ratio                     : 1.85:1
  15. Frame rate mode                          : Constant
  16. Frame rate                               : 23.976 (24000/1001) FPS
  17. Color space                              : YUV
  18. Chroma subsampling                       : 4:2:0
  19. Bit depth                                : 8 bits
  20. Scan type                                : Progressive
  21. Bits/(Pixel*Frame)                       : 0.241
  22. Stream size                              : 8.18 GiB (88%)
  23. Title                                    : Flaming.Brothers.1987.CHINESE.1080p.BluRay.x264.DTS-FGT
  24. Writing library                          : x264 core 148 r2795M aaa9aa8
  25. Encoding settings                        : cabac=1 / ref=4 / deblock=1:-2:-2 / analyse=0x3:0x113 / me=umh / subme=9 / psy=1 / psy_rd=1.00:0.15 / mixed_ref=1 / me_range=16 / chroma_me=1 / trellis=2 / 8x8dct=1 / cqm=0 / deadzone=21,11 / fast_pskip=1 / chroma_qp_offset=-3 / threads=24 / lookahead_threads=3 / sliced_threads=0 / nr=0 / decimate=1 / interlaced=0 / bluray_compat=0 / constrained_intra=0 / bframes=3 / b_pyramid=2 / b_adapt=1 / b_bias=0 / direct=3 / weightb=1 / open_gop=0 / weightp=2 / keyint=250 / keyint_min=25 / scenecut=40 / intra_refresh=0 / rc_lookahead=50 / rc=2pass / mbtree=1 / bitrate=11500 / ratetol=1.0 / qcomp=0.60 / qpmin=0 / qpmax=69 / qpstep=4 / cplxblur=20.0 / qblur=0.5 / vbv_maxrate=31250 / vbv_bufsize=31250 / nal_hrd=none / filler=0 / ip_ratio=1.40 / aq=1:1.00
  26. Language                                 : Chinese
  27. Default                                  : Yes
  28. Forced                                   : No
  29. Audio
  30. ID                                       : 2
  31. Format                                   : DTS
  32. Format/Info                              : Digital Theater Systems
  33. Codec ID                                 : A_DTS
  34. Duration                                 : 1 h 41 min
  35. Bit rate mode                            : Constant
  36. Bit rate                                 : 1 509 kb/s
  37. Channel(s)                               : 6 channels
  38. Channel layout                           : C L R Ls Rs LFE
  39. Sampling rate                            : 48.0 kHz
  40. Frame rate                               : 93.750 FPS (512 SPF)
  41. Bit depth                                : 16 bits
  42. Compression mode                         : Lossy
  43. Stream size                              : 1.07 GiB (12%)
  44. Title                                    : Flaming.Brothers.1987.CHINESE.1080p.BluRay.x264.DTS-FGT
  45. Language                                 : Chinese
  46. Default                                  : Yes
  47. Forced                                   : No
  48. Text
  49. ID                                       : 3
  50. Format                                   : UTF-8
  51. Codec ID                                 : S_TEXT/UTF8
  52. Codec ID/Info                            : UTF-8 Plain Text
  53. Duration                                 : 1 h 39 min
  54. Bit rate                                 : 48 b/s
  55. Count of elements                        : 1247
  56. Stream size                              : 35.4 KiB (0%)
  57. Language                                 : English
  58. Default                                  : Yes
  59. Forced                                   : No
复制代码






                                       
                                       

                                       
                                       
                                       




回复

使用道具 举报

懒得打字嘛,点击右侧快捷回复 【右侧内容,后台自定义】
您需要登录后才可以回帖 登录 | 立即加入

本版积分规则

Archiver| |网站地图

Copyright © 2024 Comsenz Inc. Powered by 蓝光电影网

本站内容由用户自主分享和转载自互联网,转载目的在于传递更多信息,并不代表本网赞同其观点和对其真实性负责。

如有侵权、违反国家法律政策行为,请联系我们,我们会第一时间及时清除和处理!

举报反馈邮箱:4k1080.com@gmail.com

快速回复 返回顶部 返回列表