找回密码

查看: 1010|回复: 0

[喜剧] 黄胡子 Yellowbeard.1983.1080p.BluRay.X264-AMIABLE 8.74GB

[复制链接]
蓝光币
2039
发表于 2020-12-2 09:01:32 | 显示全部楼层 |阅读模式


◎译  名 黄胡子
◎片  名 Yellowbeard
◎年  代 1983
◎产  地 英国
◎类  别 笑剧 / 行动 / 冒险
◎语  言 英语
◎上映日期 1983-06-24
◎IMDb评分  6/10 from 7305 users
◎IMDb链接  https://www.imdb.com/title/tt0086618/
◎豆瓣评分 /10 from 0 users
◎豆瓣链接 https://movie.douban.com/subject/1302706/
◎片  长 96 分钟
◎导  演 梅尔·达米斯基 Mel Damski
◎编  剧 彼得·库克 Peter Cook / 格雷厄姆·查普曼 Graham Chapman
◎主  演 格雷厄姆·查普曼 Graham Chapman
       彼得·博伊尔 Peter Boyle
       切奇·马林 Cheech Marin
       汤米·钟 Tommy Chong
       彼得·库克 Peter Cook
       马蒂·费德曼 Marty Feldman
       马丁·休伊特 Martin Hewitt
       迈克尔·霍登 Michael Hordern
       艾瑞克·爱都 Eric Idle
       玛德莲·卡恩 Madeline Kahn
       詹姆斯·梅森 James Mason
       约翰·克立斯 John Cleese
       肯尼思·马尔斯 Kenneth Mars
       博纳德·福克斯 Bernard Fox
       罗纳德·莱西 Ronald Lacey
       Monte Landis
       费迪·梅恩 Ferdy Mayne
       丝欧美内尔金 Stacey Nelkin
       贝里尔·瑞德 Beryl Reid
       奈杰尔·斯托克 Nigel Stock
       彼得·布尔 Peter Bull
       斯派克·米利甘 Spike Milligan
       Carlos East
       John Dair
       John Francis
       大卫·鲍伊 David Bowie
       苏珊娜·约克 Susannah York
       奈格尔·派纳 Nigel Planer
       Michael Mileham
◎标  签 MontyPython | 英国电影 | 笑剧 | DavidBowie | 1983 | 1980s | Comedy | 英國
◎简  介


  暂无相关剧情先容
  1. Video
  2. ID                                       : 1
  3. Format                                   : AVC
  4. Format/Info                              : Advanced Video Codec
  5. Format profile                           : [email protected]
  6. Format settings                          : CABAC / 4 Ref Frames
  7. Format settings, CABAC                   : Yes
  8. Format settings, Reference frames        : 4 frames
  9. Codec ID                                 : V_MPEG4/ISO/AVC
  10. Duration                                 : 1 h 36 min
  11. Bit rate                                 : 11.5 Mb/s
  12. Width                                    : 1 920 pixels
  13. Height                                   : 1 040 pixels
  14. Display aspect ratio                     : 1.85:1
  15. Frame rate mode                          : Constant
  16. Frame rate                               : 23.976 (24000/1001/189150) FPS
  17. Color space                              : YUV
  18. Chroma subsampling                       : 4:2:0
  19. Bit depth                                : 8 bits
  20. Scan type                                : Progressive
  21. Bits/(Pixel*Frame)                       : 0.239
  22. Stream size                              : 7.55 GiB (86%)
  23. Writing library                          : x264 core 146 r2538 121396c
  24. Encoding settings                        : cabac=1 / ref=4 / deblock=1:-3:-3 / analyse=0x3:0x113 / me=umh / subme=8 / psy=1 / psy_rd=1.00:0.00 / mixed_ref=1 / me_range=16 / chroma_me=1 / trellis=1 / 8x8dct=1 / cqm=0 / deadzone=21,11 / fast_pskip=1 / chroma_qp_offset=-2 / threads=18 / lookahead_threads=3 / sliced_threads=0 / nr=0 / decimate=1 / interlaced=0 / bluray_compat=0 / constrained_intra=0 / bframes=3 / b_pyramid=2 / b_adapt=2 / b_bias=0 / direct=3 / weightb=1 / open_gop=0 / weightp=2 / keyint=240 / keyint_min=24 / scenecut=40 / intra_refresh=0 / rc_lookahead=50 / rc=2pass / mbtree=1 / bitrate=11465 / ratetol=1.0 / qcomp=0.60 / qpmin=0 / qpmax=69 / qpstep=4 / cplxblur=20.0 / qblur=0.5 / ip_ratio=1.40 / aq=1:1.00
  25. Language                                 : English
  26. Default                                  : Yes
  27. Forced                                   : No

  28. Audio
  29. ID                                       : 2
  30. Format                                   : DTS
  31. Format/Info                              : Digital Theater Systems
  32. Codec ID                                 : A_DTS
  33. Duration                                 : 1 h 36 min
  34. Bit rate mode                            : Constant
  35. Bit rate                                 : 1 509 kb/s
  36. Channel(s)                               : 2 channels
  37. Channel layout                           : L R
  38. Sampling rate                            : 48.0 kHz
  39. Frame rate                               : 93.750 FPS (512 SPF)
  40. Bit depth                                : 24 bits
  41. Compression mode                         : Lossy
  42. Stream size                              : 1.02 GiB (12%)
  43. Language                                 : English
  44. Default                                  : Yes
  45. Forced                                   : No
复制代码








                                       
                                       

                                       
                                       
                                       




回复

使用道具 举报

懒得打字嘛,点击右侧快捷回复 【右侧内容,后台自定义】
您需要登录后才可以回帖 登录 | 立即加入

本版积分规则

Archiver| |网站地图

Copyright © 2024 Comsenz Inc. Powered by 蓝光电影网

本站内容由用户自主分享和转载自互联网,转载目的在于传递更多信息,并不代表本网赞同其观点和对其真实性负责。

如有侵权、违反国家法律政策行为,请联系我们,我们会第一时间及时清除和处理!

举报反馈邮箱:4k1080.com@gmail.com

快速回复 返回顶部 返回列表