找回密码

查看: 1243|回复: 0

[喜剧] 滑石粉 Borotalco.1982.ITALIAN.1080p.BluRay.x264.FLAC.2.0-NOGRP 8.35GB

[复制链接]
蓝光币
2039
发表于 2020-12-14 09:24:36 | 显示全部楼层 |阅读模式


◎译  名 滑石粉/Talcum Powder
◎片  名 Borotalco
◎年  代 1982
◎产  地 意大利
◎类  别 笑剧
◎语  言 意大利语
◎上映日期 1982-01-22
◎IMDb评分  6.9/10 from 1859 users
◎IMDb链接  https://www.imdb.com/title/tt0083680/
◎豆瓣评分 /10 from 0 users
◎豆瓣链接 https://movie.douban.com/subject/4883051/
◎片  长 107 分钟
◎导  演 卡洛·维尔多内 Carlo Verdone
◎编  剧 恩里科·奥尔多尼 Enrico Oldoini / 卡洛·维尔多内 Carlo Verdone
◎主  演 Roberta Manfredi
       克里斯蒂安·德·西卡 Christian De Sica
       莫阿娜·波齐 Moana Pozzi
       伊莉莎·马邑纳德蒂 Elisa Mainardi
       安杰洛·伊凡蒂 Angelo Infanti
       卡洛·维尔多内 Carlo Verdone
       Isabella De Bernardi
       马里奥·布雷加 Mario Brega
       埃莉奥诺拉?吉奥尔吉 Eleonora Giorgi
       伊莎·格里奈尼 Isa Gallinelli
◎标  签 意大利 | 笑剧 | CarloVerdone | 1982
◎简  介


  Sergio Benvenuti finds job as musical agent in an important Italian publisher. This could be his final step before to marry Rossella. But his career does not rise, so he asks Nadia Vandelli, a more experienced agent and a nice girl, to work together just for one day, in order to gain some more experience. They have to meet Manuel Fantoni in his own flat. Nadia is late and Sergio goes on with the meeting. Fantoni isn't what he says he is and Nadia is arriving. Everything starts rolling quickly and quickly till Sergio finds himself in an incredible and funny situation from which it will be hard to escape.
  1. Video
  2. ID                                       : 1
  3. Format                                   : AVC
  4. Format/Info                              : Advanced Video Codec
  5. Format profile                           : [email protected]
  6. Format settings                          : CABAC / 4 Ref Frames
  7. Format settings, CABAC                   : Yes
  8. Format settings, Reference frames        : 4 frames
  9. Codec ID                                 : V_MPEG4/ISO/AVC
  10. Duration                                 : 1 h 41 min
  11. Bit rate                                 : 11.3 Mb/s
  12. Width                                    : 1 920 pixels
  13. Height                                   : 1 080 pixels
  14. Display aspect ratio                     : 16:9
  15. Frame rate mode                          : Constant
  16. Frame rate                               : 23.976 (24000/1001/189150) FPS
  17. Color space                              : YUV
  18. Chroma subsampling                       : 4:2:0
  19. Bit depth                                : 8 bits
  20. Scan type                                : Progressive
  21. Bits/(Pixel*Frame)                       : 0.227
  22. Stream size                              : 7.99 GiB (96%)
  23. Writing library                          : x264 core 155 r2917 0a84d98
  24. Encoding settings                        : cabac=1 / ref=4 / deblock=1:-3:-3 / analyse=0x3:0x133 / me=umh / subme=9 / psy=1 / psy_rd=1.00:0.00 / mixed_ref=1 / me_range=16 / chroma_me=1 / trellis=2 / 8x8dct=1 / cqm=0 / deadzone=21,11 / fast_pskip=1 / chroma_qp_offset=-2 / threads=12 / lookahead_threads=1 / sliced_threads=0 / nr=0 / decimate=0 / interlaced=0 / bluray_compat=0 / constrained_intra=0 / bframes=3 / b_pyramid=2 / b_adapt=2 / b_bias=0 / direct=3 / weightb=1 / open_gop=0 / weightp=2 / keyint=250 / keyint_min=23 / scenecut=40 / intra_refresh=0 / rc=crf / mbtree=0 / crf=22.0 / qcomp=0.60 / qpmin=0 / qpmax=69 / qpstep=4 / ip_ratio=1.40 / pb_ratio=1.30 / aq=1:1.00
  25. Default                                  : Yes
  26. Forced                                   : No
  27. Color range                              : Limited
  28. Color primaries                          : BT.709
  29. Transfer characteristics                 : BT.709
  30. Matrix coefficients                      : BT.709
  31. Audio
  32. ID                                       : 2
  33. Format                                   : FLAC
  34. Format/Info                              : Free Lossless Audio Codec
  35. Codec ID                                 : A_FLAC
  36. Duration                                 : 1 h 41 min
  37. Bit rate mode                            : Variable
  38. Bit rate                                 : 497 kb/s
  39. Channel(s)                               : 2 channels
  40. Channel layout                           : L R
  41. Sampling rate                            : 48.0 kHz
  42. Frame rate                               : 11.719 FPS (4096 SPF)
  43. Bit depth                                : 16 bits
  44. Compression mode                         : Lossless
  45. Stream size                              : 359 MiB (4%)
  46. Writing library                          : libFLAC 1.2.1 (UTC 2007-09-17)
  47. Language                                 : Italian
  48. Default                                  : Yes
  49. Forced                                   : No
  50. Text #1
  51. ID                                       : 3
  52. Format                                   : PGS
  53. Muxing mode                              : zlib
  54. Codec ID                                 : S_HDMV/PGS
  55. Codec ID/Info                            : Picture based subtitle format used on BDs/HD-DVDs
  56. Duration                                 : 1 h 36 min
  57. Bit rate                                 : 43.6 kb/s
  58. Count of elements                        : 1944
  59. Stream size                              : 30.2 MiB (0%)
  60. Language                                 : Italian
  61. Default                                  : No
  62. Forced                                   : No
  63. Text #2
  64. ID                                       : 4
  65. Format                                   : UTF-8
  66. Codec ID                                 : S_TEXT/UTF8
  67. Codec ID/Info                            : UTF-8 Plain Text
  68. Duration                                 : 1 h 36 min
  69. Bit rate                                 : 54 b/s
  70. Count of elements                        : 1046
  71. Stream size                              : 38.7 KiB (0%)
  72. Language                                 : English
  73. Default                                  : No
  74. Forced                                   : No
  75. Text #3
  76. ID                                       : 5
  77. Format                                   : UTF-8
  78. Codec ID                                 : S_TEXT/UTF8
  79. Codec ID/Info                            : UTF-8 Plain Text
  80. Duration                                 : 1 h 36 min
  81. Bit rate                                 : 62 b/s
  82. Count of elements                        : 947
  83. Stream size                              : 44.0 KiB (0%)
  84. Language                                 : French
  85. Default                                  : No
  86. Forced                                   : No
  87. Text #4
  88. ID                                       : 6
  89. Format                                   : UTF-8
  90. Codec ID                                 : S_TEXT/UTF8
  91. Codec ID/Info                            : UTF-8 Plain Text
  92. Duration                                 : 1 h 36 min
  93. Bit rate                                 : 53 b/s
  94. Count of elements                        : 972
  95. Stream size                              : 38.0 KiB (0%)
  96. Language                                 : Italian
  97. Default                                  : No
  98. Forced                                   : No
  99. Text #5
  100. ID                                       : 7
  101. Format                                   : UTF-8
  102. Codec ID                                 : S_TEXT/UTF8
  103. Codec ID/Info                            : UTF-8 Plain Text
  104. Duration                                 : 1 h 36 min
  105. Bit rate                                 : 71 b/s
  106. Count of elements                        : 938
  107. Stream size                              : 50.5 KiB (0%)
  108. Language                                 : Romanian
  109. Default                                  : No
  110. Forced                                   : No
  111. Menu
  112. 00:00:00.000                             : it:Chapter 01
  113. 00:05:13.480                             : it:Chapter 02
  114. 00:08:39.936                             : it:Chapter 03
  115. 00:12:13.066                             : it:Chapter 04
  116. 00:14:59.982                             : it:Chapter 05
  117. 00:17:21.624                             : it:Chapter 06
  118. 00:22:55.457                             : it:Chapter 07
  119. 00:25:48.630                             : it:Chapter 08
  120. 00:30:51.850                             : it:Chapter 09
  121. 00:37:17.402                             : it:Chapter 10
  122. 00:41:32.448                             : it:Chapter 11
  123. 00:48:42.753                             : it:Chapter 12
  124. 00:51:28.460                             : it:Chapter 13
  125. 00:54:11.290                             : it:Chapter 14
  126. 00:58:46.732                             : it:Chapter 15
  127. 01:02:25.784                             : it:Chapter 16
  128. 01:06:04.586                             : it:Chapter 17
  129. 01:09:03.765                             : it:Chapter 18
  130. 01:10:46.576                             : it:Chapter 19
  131. 01:17:02.117                             : it:Chapter 20
  132. 01:19:19.213                             : it:Chapter 21
  133. 01:22:37.870                             : it:Chapter 22
  134. 01:23:53.570                             : it:Chapter 23
  135. 01:34:16.025                             : it:Chapter 24
复制代码



                                       
                                       

                                       
                                       
                                       




回复

使用道具 举报

懒得打字嘛,点击右侧快捷回复 【右侧内容,后台自定义】
您需要登录后才可以回帖 登录 | 立即加入

本版积分规则

Archiver| |网站地图

Copyright © 2024 Comsenz Inc. Powered by 蓝光电影网

本站内容由用户自主分享和转载自互联网,转载目的在于传递更多信息,并不代表本网赞同其观点和对其真实性负责。

如有侵权、违反国家法律政策行为,请联系我们,我们会第一时间及时清除和处理!

举报反馈邮箱:4k1080.com@gmail.com

快速回复 返回顶部 返回列表