找回密码

查看: 1160|回复: 0

[喜剧] 胆战心惊 The.Big.Scare.1964.FRENCH.1080p.BluRay.x264.FLAC.2.0-TRAND 8.37GB

[复制链接]
蓝光币
2048
发表于 2020-12-14 08:43:46 | 显示全部楼层 |阅读模式


◎译  名 惶惑不安
◎片  名 La grande frousse
◎年  代 1964
◎产  地 法国
◎类  别 笑剧 / 恋爱 / 悬疑 / 可骇 / 犯罪
◎语  言 法语
◎上映日期 1964
◎IMDb评分  6.6/10 from 339 users
◎IMDb链接  https://www.imdb.com/title/tt0058159/
◎豆瓣评分 /10 from 0 users
◎豆瓣链接 https://movie.douban.com/subject/3902087/
◎片  长 80 分钟
◎导  演 让-皮埃尔·莫基 Jean-Pierre Mocky
◎编  剧 让-皮埃尔·莫基 Jean-Pierre Mocky / Jean Ray / 雷蒙·格诺 Raymond Queneau
◎主  演 布尔维尔 Bourvil
       让-路易斯·巴劳特 Jean-Louis Barrault
       弗朗西斯·布朗什 Francis Blanche
       维克托·弗兰森 Victor Francen
       让·普瓦雷 Jean Poiret
       雷蒙·鲁洛 Raymond Rouleau
       René-Louis Lafforgue
       罗歇·勒格里 Roger Legris
       克洛德·芒萨尔 Claude Mansard
       吕迪·勒努瓦 Rudy Lenoir
       Fred Pasquali
       让-克洛德·勒莫勒 Jean-Claude Rémoleux
       马塞尔·佩雷斯 Marcel Pérès
       Max Desrau
       雅克·迪菲约 Jacques Dufilho
       莱昂斯·科尔内 Léonce Corne
       菲利普·卡斯泰利 Philippe Castelli
       多米尼克·扎尔迪 Dominique Zardi
◎标  签 法国 | 犯罪 | 法国电影 | 悬疑 | 可骇 | 笑剧 | 3
◎简  介


  一个神神叨叨的警官去一个小镇上观察印刷伪币的罪犯,发现当地的居民几多都有点儿不一般。
  1. Video
  2. ID                                       : 1
  3. Format                                   : AVC
  4. Format/Info                              : Advanced Video Codec
  5. Format profile                           : [email protected]
  6. Format settings                          : CABAC / 4 Ref Frames
  7. Format settings, CABAC                   : Yes
  8. Format settings, Reference frames        : 4 frames
  9. Codec ID                                 : V_MPEG4/ISO/AVC
  10. Duration                                 : 1 h 34 min
  11. Bit rate                                 : 12.4 Mb/s
  12. Width                                    : 1 792 pixels
  13. Height                                   : 1 080 pixels
  14. Display aspect ratio                     : 5:3
  15. Frame rate mode                          : Constant
  16. Frame rate                               : 24.000 FPS
  17. Color space                              : YUV
  18. Chroma subsampling                       : 4:2:0
  19. Bit depth                                : 8 bits
  20. Scan type                                : Progressive
  21. Bits/(Pixel*Frame)                       : 0.266
  22. Stream size                              : 8.13 GiB (97%)
  23. Title                                    : Source: La.cite.de.l.indicible.peur.1964.REMASTERED.1080i.BluRay.AVC.DTS.HD.MA.2.0-HDForever
  24. Writing library                          : x264 core 160 r3011 cde9a93
  25. Encoding settings                        : cabac=1 / ref=4 / deblock=1:-3:-3 / analyse=0x3:0x133 / me=umh / subme=10 / psy=1 / psy_rd=1.00:0.00 / mixed_ref=1 / me_range=24 / chroma_me=1 / trellis=2 / 8x8dct=1 / cqm=0 / deadzone=21,11 / fast_pskip=0 / chroma_qp_offset=-4 / threads=18 / lookahead_threads=4 / sliced_threads=0 / nr=0 / decimate=0 / interlaced=0 / bluray_compat=0 / constrained_intra=0 / bframes=12 / b_pyramid=2 / b_adapt=2 / b_bias=0 / direct=3 / weightb=1 / open_gop=0 / weightp=2 / keyint=240 / keyint_min=24 / scenecut=40 / intra_refresh=0 / rc_lookahead=60 / rc=crf / mbtree=0 / crf=20.6 / qcomp=0.60 / qpmin=0 / qpmax=69 / qpstep=4 / vbv_maxrate=62500 / vbv_bufsize=78125 / crf_max=0.0 / nal_hrd=none / filler=0 / ip_ratio=1.40 / pb_ratio=1.30 / aq=2:1.00
  26. Default                                  : Yes
  27. Forced                                   : No
  28. Color range                              : Limited
  29. Color primaries                          : BT.709
  30. Transfer characteristics                 : BT.709
  31. Matrix coefficients                      : BT.709
  32. Audio
  33. ID                                       : 2
  34. Format                                   : FLAC
  35. Format/Info                              : Free Lossless Audio Codec
  36. Codec ID                                 : A_FLAC
  37. Duration                                 : 1 h 31 min
  38. Bit rate mode                            : Variable
  39. Bit rate                                 : 366 kb/s
  40. Channel(s)                               : 2 channels
  41. Channel layout                           : L R
  42. Sampling rate                            : 48.0 kHz
  43. Frame rate                               : 11.719 FPS (4096 SPF)
  44. Bit depth                                : 16 bits
  45. Compression mode                         : Lossless
  46. Stream size                              : 240 MiB (3%)
  47. Writing library                          : libFLAC 1.2.1 (UTC 2007-09-17)
  48. Language                                 : French
  49. Default                                  : Yes
  50. Forced                                   : No
  51. Text
  52. ID                                       : 3
  53. Format                                   : UTF-8
  54. Codec ID                                 : S_TEXT/UTF8
  55. Codec ID/Info                            : UTF-8 Plain Text
  56. Duration                                 : 1 h 31 min
  57. Bit rate                                 : 68 b/s
  58. Count of elements                        : 1290
  59. Stream size                              : 45.9 KiB (0%)
  60. Language                                 : English
  61. Default                                  : Yes
  62. Forced                                   : No
  63. Menu
  64. 00:00:00.000                             : :Chapter 1
  65. 00:15:32.208                             : :Chapter 2
  66. 00:27:57.000                             : :Chapter 3
  67. 00:40:38.750                             : :Chapter 4
  68. 00:49:53.417                             : :Chapter 5
  69. 01:00:19.458                             : :Chapter 6
  70. 01:11:16.833                             : :Chapter 7
  71. 01:21:45.708                             : :Chapter 8
  72. 01:31:53.500                             : :Chapter 9
复制代码



                                       
                                       

                                       
                                       
                                       




回复

使用道具 举报

懒得打字嘛,点击右侧快捷回复 【右侧内容,后台自定义】
您需要登录后才可以回帖 登录 | 立即加入

本版积分规则

Archiver| |网站地图

Copyright © 2024 Comsenz Inc. Powered by 蓝光电影网

本站内容由用户自主分享和转载自互联网,转载目的在于传递更多信息,并不代表本网赞同其观点和对其真实性负责。

如有侵权、违反国家法律政策行为,请联系我们,我们会第一时间及时清除和处理!

举报反馈邮箱:4k1080.com@gmail.com

快速回复 返回顶部 返回列表