找回密码

查看: 1146|回复: 0

[喜剧] 搭档 Tandem.1987.FRENCH.1080p.BluRay.x264.FLAC.1.0-SaL 11.41GB

[复制链接]
蓝光币
2048
发表于 2020-12-14 08:23:57 | 显示全部楼层 |阅读模式


◎译  名 同伴
◎片  名 Tandem
◎年  代 1987
◎产  地 法国
◎类  别 笑剧
◎语  言 法语
◎上映日期 1987-06-17
◎IMDb评分  7/10 from 1016 users
◎IMDb链接  https://www.imdb.com/title/tt0094105/
◎豆瓣评分 /10 from 0 users
◎豆瓣链接 https://movie.douban.com/subject/2907003/
◎片  长 86分钟
◎导  演 帕特里斯·勒孔特 Patrice Leconte
◎编  剧 帕特里斯·勒孔特 Patrice Leconte / 帕特里克·德沃尔夫 Patrick Dewolf
◎主  演 热拉尔·朱尼奥 Gérard Jugnot
       让·雷谢夫 Jean Rochefort
       西尔薇·维尔海迪 Sylvie Verheyde
       加布里埃尔·戈班 Gabriel Gobin
       Julie Jézéquel
       让-克洛德·德雷菲斯 Jean-Claude Dreyfus
       艾伯特·德尔佩 Albert Delpy
       玛丽·佩里 Marie Pillet
       吉德·玛尔隆 Ged Marlon
◎标  签 法国 | 法国电影 | 电影频道 | 笑剧 | D帕特利斯·勒孔特 | CCTV6外语 | 1987 | 被轻忽的电影
◎简  介


  Mortez (Rochefort) is a famous ageing radio game host who spend his life on the road, going from town to town for his show, with his younger sidekick Rivetot (Jugnot). The show is their whole life, until the radio station decides to cancel it... "Tandem" is a tragedy, a comedy, a road-movie and a tale in the same package. The background manages to be both hyperrealistic (it depicts a gloomy provincial life and is inspired by a real game show that still exists today) and fantastic (surreal events abound, like the mysterious red dog Rivetot keeps seeing). Rochefort is simply great as the charming but obsessive Mortez who will never surrender. Jugnot, as the subdued sidekick that has trouble living without his mentor, delivers a strong performance far from his usual slapstick roles. Both make a heartbreaking, unforgettable tandem and the movie is one of the masterpieces of the 80's.
  
  热拉尔·.朱诺
  
  法国影坛最优异的男演员之一, 1984年凭仗影片《差人皮诺》(Pinot Simple Flic)而名声大燥,成为法兰西最著名的“差人”演员。在法国外乡,具有很是强的票房号令力。
  
  热拉尔·.朱诺-----作品集
  
  2004年7月14日,法国总统雅克-希拉克授与其“声誉骑士”称号
  
  1998年 因影片《玛特》(Marthe)荣获恺撒最好男配角提名
  
  1992年 因影片《大时代》(Une époque formidable)荣获恺撒最好男演员提名
  
  1988年 因影片《同伴》(Tandem)荣获恺撒最好男演员提名
  1. Video
  2. ID                                       : 1
  3. Format                                   : AVC
  4. Format/Info                              : Advanced Video Codec
  5. Format profile                           : [email protected]
  6. Format settings                          : CABAC / 5 Ref Frames
  7. Format settings, CABAC                   : Yes
  8. Format settings, Reference frames        : 5 frames
  9. Codec ID                                 : V_MPEG4/ISO/AVC
  10. Duration                                 : 1 h 30 min
  11. Bit rate                                 : 17.6 Mb/s
  12. Width                                    : 1 920 pixels
  13. Height                                   : 816 pixels
  14. Display aspect ratio                     : 2.35:1
  15. Frame rate mode                          : Constant
  16. Frame rate                               : 23.976 (24000/1001/189150) FPS
  17. Color space                              : YUV
  18. Chroma subsampling                       : 4:2:0
  19. Bit depth                                : 8 bits
  20. Scan type                                : Progressive
  21. Bits/(Pixel*Frame)                       : 0.470
  22. Stream size                              : 11.2 GiB (98%)
  23. Writing library                          : x264 core 157 r2935 545de2f
  24. Encoding settings                        : cabac=1 / ref=5 / deblock=1:-3:-2 / analyse=0x3:0x133 / me=umh / subme=10 / psy=1 / psy_rd=1.25:0.00 / mixed_ref=1 / me_range=32 / chroma_me=1 / trellis=2 / 8x8dct=1 / cqm=0 / deadzone=6,6 / fast_pskip=0 / chroma_qp_offset=-2 / threads=6 / lookahead_threads=1 / sliced_threads=0 / nr=0 / decimate=0 / interlaced=0 / bluray_compat=0 / constrained_intra=0 / bframes=16 / b_pyramid=2 / b_adapt=2 / b_bias=0 / direct=3 / weightb=1 / open_gop=0 / weightp=2 / keyint=250 / keyint_min=23 / scenecut=40 / intra_refresh=0 / rc_lookahead=150 / rc=crf / mbtree=0 / crf=24.8 / qcomp=0.78 / qpmin=0 / qpmax=69 / qpstep=4 / vbv_maxrate=62500 / vbv_bufsize=78125 / crf_max=0.0 / nal_hrd=none / filler=0 / ip_ratio=1.30 / pb_ratio=1.20 / aq=2:0.75
  25. Default                                  : Yes
  26. Forced                                   : No
  27. Color range                              : Limited
  28. Color primaries                          : BT.709
  29. Matrix coefficients                      : BT.709
  30. Audio
  31. ID                                       : 2
  32. Format                                   : FLAC
  33. Format/Info                              : Free Lossless Audio Codec
  34. Codec ID                                 : A_FLAC
  35. Duration                                 : 1 h 30 min
  36. Bit rate mode                            : Variable
  37. Bit rate                                 : 297 kb/s
  38. Channel(s)                               : 1 channel
  39. Sampling rate                            : 48.0 kHz
  40. Frame rate                               : 11.719 FPS (4096 SPF)
  41. Bit depth                                : 16 bits
  42. Compression mode                         : Lossless
  43. Stream size                              : 193 MiB (2%)
  44. Writing library                          : libFLAC 1.2.1 (UTC 2007-09-17)
  45. Language                                 : French
  46. Default                                  : Yes
  47. Forced                                   : No
  48. Text #1
  49. ID                                       : 3
  50. Format                                   : UTF-8
  51. Codec ID                                 : S_TEXT/UTF8
  52. Codec ID/Info                            : UTF-8 Plain Text
  53. Duration                                 : 1 h 26 min
  54. Bit rate                                 : 47 b/s
  55. Count of elements                        : 1103
  56. Stream size                              : 30.4 KiB (0%)
  57. Title                                    : English
  58. Language                                 : English
  59. Default                                  : Yes
  60. Forced                                   : No
  61. Text #2
  62. ID                                       : 4
  63. Format                                   : UTF-8
  64. Codec ID                                 : S_TEXT/UTF8
  65. Codec ID/Info                            : UTF-8 Plain Text
  66. Duration                                 : 1 h 30 min
  67. Bit rate                                 : 71 b/s
  68. Count of elements                        : 1224
  69. Stream size                              : 47.3 KiB (0%)
  70. Title                                    : French SDH
  71. Language                                 : French
  72. Default                                  : No
  73. Forced                                   : No
  74. Menu
  75. 00:00:00.000                             : en:Chapter 01
  76. 00:07:18.438                             : en:Chapter 02
  77. 00:13:44.032                             : en:Chapter 03
  78. 00:22:17.545                             : en:Chapter 04
  79. 00:30:04.094                             : en:Chapter 05
  80. 00:39:42.839                             : en:Chapter 06
  81. 00:47:20.713                             : en:Chapter 07
  82. 00:57:57.516                             : en:Chapter 08
  83. 01:06:19.267                             : en:Chapter 09
  84. 01:14:08.444                             : en:Chapter 10
  85. 01:22:39.079                             : en:Chapter 11
  86. 01:29:07.551                             : en:Chapter 12
复制代码



                                       
                                       

                                       
                                       
                                       




回复

使用道具 举报

懒得打字嘛,点击右侧快捷回复 【右侧内容,后台自定义】
您需要登录后才可以回帖 登录 | 立即加入

本版积分规则

Archiver| |网站地图

Copyright © 2024 Comsenz Inc. Powered by 蓝光电影网

本站内容由用户自主分享和转载自互联网,转载目的在于传递更多信息,并不代表本网赞同其观点和对其真实性负责。

如有侵权、违反国家法律政策行为,请联系我们,我们会第一时间及时清除和处理!

举报反馈邮箱:4k1080.com@gmail.com

快速回复 返回顶部 返回列表