找回密码

查看: 1035|回复: 0

[其他] 后窗 Rear.Window.1954.1080p.BluRay.x264.DTS-HD.MA.2.0-SWTYBLZ 10.42GB

[复制链接]
蓝光币
2048
发表于 2020-9-17 09:16:41 | 显示全部楼层 |阅读模式


◎译  名 后窗/Alfred Hitchcock's Rear Window/Fenêtre sur cour
◎片  名 Rear Window
◎年  代 1954
◎产  地 美国
◎类  别 悬疑 / 惊悚
◎语  言 英语
◎上映日期 1954-08-01(美国)
◎IMDb评分  8.4/10 from 433403 users
◎IMDb链接  https://www.imdb.com/title/tt0047396/
◎豆瓣评分 8.6/10 from 126822 users
◎豆瓣链接 https://movie.douban.com/subject/1299080/
◎片  长 112 分钟
◎导  演 阿尔弗雷德·希区柯克 Alfred Hitchcock
◎编  剧 约翰·迈克尔·海耶斯 John Michael Hayes / 康奈尔·伍尔里奇 Cornell Woolrich
◎主  演 詹姆斯·斯图尔特 James Stewart
       格蕾丝·凯利 Grace Kelly
       温戴尔·柯瑞 Wendell Corey
       瑟尔玛·瑞特 Thelma Ritter
       雷蒙德·布尔 Raymond Burr
       朱迪思·伊夫林 Judith Evelyn
       罗斯·巴格达萨里安 Ross Bagdasarian
       乔金·达西 Georgine Darcy
       萨拉·伯纳 Sara Berner
       弗兰克·卡迪 Frank Cady
       杰丝琳·法克斯 Jesslyn Fax
       艾琳·温斯顿 Irene Winston
       哈维斯·达文波特 Havis Davenport
       本尼·巴莱特 Benny Bartlett
       马拉·英格丽什 Marla English
       贝丝·弗劳尔斯 Bess Flowers
       阿特·吉尔摩 Art Gilmore
       弗莱德·格兰姆 Fred Graham
       凯丝琳·格兰特 Kathryn Grant
       阿尔弗雷德·希区柯克 Alfred Hitchcock
       迈克·马奥尼 Mike Mahoney
       杰克·斯托尼 Jack Stoney
       吉格·杨 Gig Young
       Rand Harper
       Nick Borgani
       Iphigenie Castiglioni
       Don Dunning
       Harry Landers
       Jonni Paris
       Eddie Parker
       罗伯特·舍曼 Robert Sherman
       Dick Simmons
       Ralph Smiley
       Anthony Warde
◎标  签 希区柯克 | 悬疑 | 美国 | 典范 | 惊悚 | 美国电影 | 1954 | AlfredHitchcock
◎简  介


  摄影师杰弗里斯(詹姆斯·斯图尔特 饰)因站在赛车道中心拍摄,断了左腿,只得在家静养七周。除了保险公司的护士斯特拉(西尔玛·里特 饰)和女友丽莎·卡罗尔·弗里蒙特(格雷斯·凯利 饰)逐日前来顾问,百无聊赖的杰弗里斯只能在窗前闲看邻人们的平常生活以打发时候。劈面公寓的二楼住着人造珠宝倾销员拉尔斯·托瓦尔德(雷蒙德·伯尔 饰)及妻子安娜(艾琳·温斯顿 饰),夫妻之间争持不竭。一个雨夜,杰弗里斯看到拉尔斯提着箱子外出数次。越日,杰弗里斯又看到拉尔斯用报纸包裹一把锯和一把刀。杰弗里斯起了狐疑,他思疑拉尔斯杀戮了安娜并分尸抛弃。但是,杰弗里斯并未目击案发进程,也未见到尸身。那末真相究竟若何呢?杰弗里斯的猜测只是他的臆想吗?为了证实他的猜测,杰弗里斯要若何寻觅证据呢?
◎获奖情况
  第27届奥斯卡金像奖 ?(1955)
  最好导演(提名) 阿尔弗雷德·希区柯克
  最好编剧(提名) 约翰·迈克尔·海耶斯
  彩色片最好摄影(提名) 罗伯特·伯克斯
  最好录音(提名) 洛伦·L·里德
  
  第15届威尼斯电影节 ?(1954)
  主比赛单元金狮奖(提名) 阿尔弗雷德·希区柯克
  1. Video
  2. ID                                       : 1
  3. Format                                   : AVC
  4. Format/Info                              : Advanced Video Codec
  5. Format profile                           : [email protected]
  6. Format settings                          : CABAC / 4 Ref Frames
  7. Format settings, CABAC                   : Yes
  8. Format settings, Reference frames        : 4 frames
  9. Codec ID                                 : V_MPEG4/ISO/AVC
  10. Duration                                 : 1 h 52 min
  11. Bit rate                                 : 11.4 Mb/s
  12. Width                                    : 1 794 pixels
  13. Height                                   : 1 080 pixels
  14. Display aspect ratio                     : 5:3
  15. Frame rate mode                          : Constant
  16. Frame rate                               : 23.976 (24000/1001/189150) FPS
  17. Color space                              : YUV
  18. Chroma subsampling                       : 4:2:0
  19. Bit depth                                : 8 bits
  20. Scan type                                : Progressive
  21. Bits/(Pixel*Frame)                       : 0.244
  22. Stream size                              : 8.92 GiB (86%)
  23. Title                                    : Rear.Window.1954.1080p.BluRay.x264.DTS-HD.MA.2.0-SWTYBLZ
  24. Writing library                          : x264 core 157 r2935 545de2f
  25. Encoding settings                        : cabac=1 / ref=4 / deblock=1:-1:-1 / analyse=0x3:0x133 / me=umh / subme=10 / psy=1 / psy_rd=1.00:0.15 / mixed_ref=1 / me_range=48 / chroma_me=1 / trellis=2 / 8x8dct=1 / cqm=0 / deadzone=21,11 / fast_pskip=1 / chroma_qp_offset=-3 / threads=34 / lookahead_threads=5 / sliced_threads=0 / nr=0 / decimate=0 / interlaced=0 / bluray_compat=0 / constrained_intra=0 / bframes=8 / b_pyramid=2 / b_adapt=2 / b_bias=0 / direct=3 / weightb=1 / open_gop=0 / weightp=2 / keyint=250 / keyint_min=23 / scenecut=40 / intra_refresh=0 / rc_lookahead=60 / rc=crf / mbtree=1 / crf=20.0 / qcomp=0.60 / qpmin=0 / qpmax=69 / qpstep=4 / ip_ratio=1.40 / aq=1:1.00
  26. Language                                 : English
  27. Default                                  : Yes
  28. Forced                                   : No
  29. Audio
  30. ID                                       : 2
  31. ID in the original source medium         : 4352 (0x1100)
  32. Format                                   : DTS XLL
  33. Format/Info                              : Digital Theater Systems
  34. Commercial name                          : DTS-HD Master Audio
  35. Codec ID                                 : A_DTS
  36. Duration                                 : 1 h 52 min
  37. Bit rate mode                            : Variable
  38. Bit rate                                 : 1 771 kb/s
  39. Channel(s)                               : 2 channels
  40. Channel layout                           : L R
  41. Sampling rate                            : 48.0 kHz
  42. Frame rate                               : 93.750 FPS (512 SPF)
  43. Bit depth                                : 24 bits
  44. Compression mode                         : Lossless
  45. Stream size                              : 1.39 GiB (13%)
  46. Title                                    : Rear.Window.1954.1080p.BluRay.x264.DTS-HD.MA.2.0-SWTYBLZ
  47. Language                                 : English
  48. Default                                  : Yes
  49. Forced                                   : No
  50. Original source medium                   : Blu-ray
  51. Text #1
  52. ID                                       : 3
  53. Format                                   : UTF-8
  54. Codec ID                                 : S_TEXT/UTF8
  55. Codec ID/Info                            : UTF-8 Plain Text
  56. Duration                                 : 1 h 49 min
  57. Bit rate                                 : 63 b/s
  58. Count of elements                        : 1381
  59. Stream size                              : 51.1 KiB (0%)
  60. Title                                    : English-SRT
  61. Language                                 : English
  62. Default                                  : Yes
  63. Forced                                   : No
  64. Text #2
  65. ID                                       : 4
  66. ID in the original source medium         : 4768 (0x12A0)
  67. Format                                   : PGS
  68. Muxing mode                              : zlib
  69. Codec ID                                 : S_HDMV/PGS
  70. Codec ID/Info                            : Picture based subtitle format used on BDs/HD-DVDs
  71. Duration                                 : 1 h 49 min
  72. Bit rate                                 : 43.7 kb/s
  73. Count of elements                        : 2888
  74. Stream size                              : 34.3 MiB (0%)
  75. Title                                    : English-PGS
  76. Language                                 : English
  77. Default                                  : No
  78. Forced                                   : No
  79. Original source medium                   : Blu-ray
  80. Text #3
  81. ID                                       : 5
  82. ID in the original source medium         : 4769 (0x12A1)
  83. Format                                   : PGS
  84. Muxing mode                              : zlib
  85. Codec ID                                 : S_HDMV/PGS
  86. Codec ID/Info                            : Picture based subtitle format used on BDs/HD-DVDs
  87. Duration                                 : 1 h 49 min
  88. Bit rate                                 : 35.5 kb/s
  89. Count of elements                        : 2432
  90. Stream size                              : 27.9 MiB (0%)
  91. Title                                    : French-PGS
  92. Language                                 : French
  93. Default                                  : No
  94. Forced                                   : No
  95. Original source medium                   : Blu-ray
  96. Text #4
  97. ID                                       : 6
  98. ID in the original source medium         : 4770 (0x12A2)
  99. Format                                   : PGS
  100. Muxing mode                              : zlib
  101. Codec ID                                 : S_HDMV/PGS
  102. Codec ID/Info                            : Picture based subtitle format used on BDs/HD-DVDs
  103. Duration                                 : 1 h 49 min
  104. Bit rate                                 : 40.3 kb/s
  105. Count of elements                        : 2430
  106. Stream size                              : 31.7 MiB (0%)
  107. Title                                    : German-PGS
  108. Language                                 : German
  109. Default                                  : No
  110. Forced                                   : No
  111. Original source medium                   : Blu-ray
  112. Text #5
  113. ID                                       : 7
  114. ID in the original source medium         : 4771 (0x12A3)
  115. Format                                   : PGS
  116. Muxing mode                              : zlib
  117. Codec ID                                 : S_HDMV/PGS
  118. Codec ID/Info                            : Picture based subtitle format used on BDs/HD-DVDs
  119. Duration                                 : 1 h 49 min
  120. Bit rate                                 : 35.9 kb/s
  121. Count of elements                        : 2428
  122. Stream size                              : 28.2 MiB (0%)
  123. Title                                    : Italian-PGS
  124. Language                                 : Italian
  125. Default                                  : No
  126. Forced                                   : No
  127. Original source medium                   : Blu-ray
  128. Text #6
  129. ID                                       : 8
  130. ID in the original source medium         : 4772 (0x12A4)
  131. Format                                   : PGS
  132. Muxing mode                              : zlib
  133. Codec ID                                 : S_HDMV/PGS
  134. Codec ID/Info                            : Picture based subtitle format used on BDs/HD-DVDs
  135. Duration                                 : 1 h 49 min
  136. Bit rate                                 : 38.0 kb/s
  137. Count of elements                        : 2430
  138. Stream size                              : 29.9 MiB (0%)
  139. Title                                    : Spanish-PGS
  140. Language                                 : Spanish
  141. Default                                  : No
  142. Forced                                   : No
  143. Original source medium                   : Blu-ray
  144. Text #7
  145. ID                                       : 9
  146. ID in the original source medium         : 4773 (0x12A5)
  147. Format                                   : PGS
  148. Muxing mode                              : zlib
  149. Codec ID                                 : S_HDMV/PGS
  150. Codec ID/Info                            : Picture based subtitle format used on BDs/HD-DVDs
  151. Duration                                 : 1 h 49 min
  152. Bit rate                                 : 29.1 kb/s
  153. Count of elements                        : 1684
  154. Stream size                              : 22.9 MiB (0%)
  155. Title                                    : Dutch-PGS
  156. Language                                 : Dutch
  157. Default                                  : No
  158. Forced                                   : No
  159. Original source medium                   : Blu-ray
  160. Text #8
  161. ID                                       : 10
  162. ID in the original source medium         : 4774 (0x12A6)
  163. Format                                   : PGS
  164. Muxing mode                              : zlib
  165. Codec ID                                 : S_HDMV/PGS
  166. Codec ID/Info                            : Picture based subtitle format used on BDs/HD-DVDs
  167. Duration                                 : 1 h 49 min
  168. Bit rate                                 : 36.3 kb/s
  169. Count of elements                        : 2430
  170. Stream size                              : 28.5 MiB (0%)
  171. Title                                    : Danish-PGS
  172. Language                                 : Danish
  173. Default                                  : No
  174. Forced                                   : No
  175. Original source medium                   : Blu-ray
  176. Text #9
  177. ID                                       : 11
  178. ID in the original source medium         : 4775 (0x12A7)
  179. Format                                   : PGS
  180. Muxing mode                              : zlib
  181. Codec ID                                 : S_HDMV/PGS
  182. Codec ID/Info                            : Picture based subtitle format used on BDs/HD-DVDs
  183. Duration                                 : 1 h 49 min
  184. Bit rate                                 : 35.1 kb/s
  185. Count of elements                        : 2428
  186. Stream size                              : 27.6 MiB (0%)
  187. Title                                    : Finnish-PGS
  188. Language                                 : Finnish
  189. Default                                  : No
  190. Forced                                   : No
  191. Original source medium                   : Blu-ray
  192. Text #10
  193. ID                                       : 12
  194. ID in the original source medium         : 4776 (0x12A8)
  195. Format                                   : PGS
  196. Muxing mode                              : zlib
  197. Codec ID                                 : S_HDMV/PGS
  198. Codec ID/Info                            : Picture based subtitle format used on BDs/HD-DVDs
  199. Duration                                 : 1 h 49 min
  200. Bit rate                                 : 31.8 kb/s
  201. Count of elements                        : 2430
  202. Stream size                              : 25.0 MiB (0%)
  203. Title                                    : Norwegian-PGS
  204. Language                                 : Norwegian
  205. Default                                  : No
  206. Forced                                   : No
  207. Original source medium                   : Blu-ray
  208. Text #11
  209. ID                                       : 13
  210. ID in the original source medium         : 4777 (0x12A9)
  211. Format                                   : PGS
  212. Muxing mode                              : zlib
  213. Codec ID                                 : S_HDMV/PGS
  214. Codec ID/Info                            : Picture based subtitle format used on BDs/HD-DVDs
  215. Duration                                 : 1 h 49 min
  216. Bit rate                                 : 30.0 kb/s
  217. Count of elements                        : 2430
  218. Stream size                              : 23.6 MiB (0%)
  219. Title                                    : Swedish-PGS
  220. Language                                 : Swedish
  221. Default                                  : No
  222. Forced                                   : No
  223. Original source medium                   : Blu-ray
  224. Text #12
  225. ID                                       : 14
  226. ID in the original source medium         : 4778 (0x12AA)
  227. Format                                   : PGS
  228. Muxing mode                              : zlib
  229. Codec ID                                 : S_HDMV/PGS
  230. Codec ID/Info                            : Picture based subtitle format used on BDs/HD-DVDs
  231. Duration                                 : 1 h 51 min
  232. Bit rate                                 : 35.2 kb/s
  233. Count of elements                        : 2200
  234. Stream size                              : 28.1 MiB (0%)
  235. Title                                    : Czech-PGS
  236. Language                                 : Czech
  237. Default                                  : No
  238. Forced                                   : No
  239. Original source medium                   : Blu-ray
  240. Text #13
  241. ID                                       : 15
  242. ID in the original source medium         : 4779 (0x12AB)
  243. Format                                   : PGS
  244. Muxing mode                              : zlib
  245. Codec ID                                 : S_HDMV/PGS
  246. Codec ID/Info                            : Picture based subtitle format used on BDs/HD-DVDs
  247. Duration                                 : 1 h 49 min
  248. Bit rate                                 : 34.7 kb/s
  249. Count of elements                        : 2432
  250. Stream size                              : 27.3 MiB (0%)
  251. Title                                    : Polish-PGS
  252. Language                                 : Polish
  253. Default                                  : No
  254. Forced                                   : No
  255. Original source medium                   : Blu-ray
  256. Text #14
  257. ID                                       : 16
  258. ID in the original source medium         : 4780 (0x12AC)
  259. Format                                   : PGS
  260. Muxing mode                              : zlib
  261. Codec ID                                 : S_HDMV/PGS
  262. Codec ID/Info                            : Picture based subtitle format used on BDs/HD-DVDs
  263. Duration                                 : 1 h 51 min
  264. Bit rate                                 : 35.6 kb/s
  265. Count of elements                        : 2708
  266. Stream size                              : 28.5 MiB (0%)
  267. Title                                    : Hindi-PGS
  268. Language                                 : Hindi
  269. Default                                  : No
  270. Forced                                   : No
  271. Original source medium                   : Blu-ray
  272. Menu
  273. 00:00:00.000                             : en:Chapter 01
  274. 00:01:36.513                             : en:Chapter 02
  275. 00:08:29.383                             : en:Chapter 03
  276. 00:15:38.479                             : en:Chapter 04
  277. 00:21:26.285                             : en:Chapter 05
  278. 00:27:13.798                             : en:Chapter 06
  279. 00:32:00.919                             : en:Chapter 07
  280. 00:36:38.654                             : en:Chapter 08
  281. 00:43:05.207                             : en:Chapter 09
  282. 00:53:40.258                             : en:Chapter 10
  283. 01:00:52.315                             : en:Chapter 11
  284. 01:12:25.507                             : en:Chapter 12
  285. 01:18:46.138                             : en:Chapter 13
  286. 01:25:06.726                             : en:Chapter 14
  287. 01:37:26.298                             : en:Chapter 15
  288. 01:44:56.081                             : en:Chapter 16
  289. 01:50:36.171                             : en:Chapter 17
复制代码






                                       
                                       

                                       
                                       
                                       




回复

使用道具 举报

懒得打字嘛,点击右侧快捷回复 【右侧内容,后台自定义】
您需要登录后才可以回帖 登录 | 立即加入

本版积分规则

Archiver| |网站地图

Copyright © 2024 Comsenz Inc. Powered by 蓝光电影网

本站内容由用户自主分享和转载自互联网,转载目的在于传递更多信息,并不代表本网赞同其观点和对其真实性负责。

如有侵权、违反国家法律政策行为,请联系我们,我们会第一时间及时清除和处理!

举报反馈邮箱:4k1080.com@gmail.com

快速回复 返回顶部 返回列表