找回密码

查看: 977|回复: 0

[动作] 刺杀游戏 Assassination.Games.2011.1080p.BluRay.x264-FilmHD 7.65GB

[复制链接]
蓝光币
2048
发表于 2019-6-26 21:12:03 | 显示全部楼层 |阅读模式


◎译  名 刺杀游戏
◎片  名 Assassination Games
◎年  代 2011
◎产  地 美国
◎类  别 行动 / 惊悚
◎语  言 英语
◎上映日期 2011-07-29
◎IMDb评分  6.2/10 from 15755 users
◎IMDb链接  http://www.imdb.com/title/tt1436568
◎豆瓣评分 6.4/10 from 4239 users
◎豆瓣链接 https://movie.douban.com/subject/3731662/
◎片  长 100分钟
◎导  演 Ernie Barbarash
◎编  剧 Aaron Rahsaan Thomas
◎主  演 尚格·云顿 Jean-Claude Van Damme
      斯科特·阿金斯 Scott Adkins
      Ivan Kaye
      Valentin Teodosiu
      Alin Panc
      凯文·查普曼 Kevin Chapman
      Serban Celea
      迈克尔·希格斯 Michael Higgs
      Kristopher Van Varenberg
      玛丽亚·卡兰 Marija Karan
      比安卡·布丽 Bianca Bree
      Andrew French
      Attila árpa
      Marioara Sterian
      George Remes

◎标  签 行动 | 美国 | 尚格云顿 | 暴力 | 犯罪 | 2011 | 美国电影 | 血腥
◎简  介  
  两名顶级杀手各为其主,双方停止了屡次较劲,但他们亲人的惨死使得他们起头冷静思考自己的未来,并终极两人成为惺惺相惜的好友,并联手对于那些凶残的仇敌。
  1. Video
  2. ID                                       : 1
  3. Format                                   : AVC
  4. Format/Info                              : Advanced Video Codec
  5. Format profile                           : [email protected]
  6. Format settings                          : CABAC / 4 Ref Frames
  7. Format settings, CABAC                   : Yes
  8. Format settings, ReFrames                : 4 frames
  9. Codec ID                                 : V_MPEG4/ISO/AVC
  10. Duration                                 : 1 h 39 min
  11. Bit rate                                 : 9 459 kb/s
  12. Width                                    : 1 920 pixels
  13. Height                                   : 1 080 pixels
  14. Display aspect ratio                     : 16:9
  15. Frame rate mode                          : Constant
  16. Frame rate                               : 23.976 (24000/1001) FPS
  17. Color space                              : YUV
  18. Chroma subsampling                       : 4:2:0
  19. Bit depth                                : 8 bits
  20. Scan type                                : Progressive
  21. Bits/(Pixel*Frame)                       : 0.190
  22. Stream size                              : 6.44 GiB (84%)
  23. Writing library                          : x264 core 142 r2389 956c8d8
  24. Encoding settings                        : cabac=1 / ref=4 / deblock=1:-3:-3 / analyse=0x3:0x113 / me=umh / subme=8 / psy=1 / psy_rd=1.00:0.00 / mixed_ref=1 / me_range=16 / chroma_me=1 / trellis=1 / 8x8dct=1 / cqm=0 / deadzone=21,11 / fast_pskip=1 / chroma_qp_offset=-2 / threads=12 / lookahead_threads=2 / sliced_threads=0 / nr=0 / decimate=1 / interlaced=0 / bluray_compat=0 / constrained_intra=0 / bframes=3 / b_pyramid=2 / b_adapt=2 / b_bias=0 / direct=3 / weightb=1 / open_gop=0 / weightp=2 / keyint=240 / keyint_min=24 / scenecut=40 / intra_refresh=0 / rc_lookahead=50 / rc=2pass / mbtree=1 / bitrate=9459 / ratetol=1.0 / qcomp=0.60 / qpmin=0 / qpmax=69 / qpstep=4 / cplxblur=20.0 / qblur=0.5 / ip_ratio=1.40 / aq=1:1.00
  25. Language                                 : English
  26. Default                                  : Yes
  27. Forced                                   : No
  28. Audio
  29. ID                                       : 2
  30. Format                                   : DTS
  31. Format/Info                              : Digital Theater Systems
  32. Codec ID                                 : A_DTS
  33. Duration                                 : 1 h 39 min
  34. Bit rate mode                            : Constant
  35. Bit rate                                 : 1 509 kb/s
  36. Channel(s)                               : 6 channels
  37. Channel positions                        : Front: L C R, Side: L R, LFE
  38. Sampling rate                            : 48.0 kHz
  39. Frame rate                               : 93.750 FPS (512 SPF)
  40. Bit depth                                : 24 bits
  41. Compression mode                         : Lossy
  42. Stream size                              : 1.05 GiB (14%)
  43. Title                                    : English
  44. Language                                 : English
  45. Default                                  : Yes
  46. Forced                                   : No
  47. Text #1
  48. ID                                       : 3
  49. Format                                   : UTF-8
  50. Codec ID                                 : S_TEXT/UTF8
  51. Codec ID/Info                            : UTF-8 Plain Text
  52. Title                                    : English - forced
  53. Language                                 : English
  54. Default                                  : Yes
  55. Forced                                   : Yes
  56. Text #2
  57. ID                                       : 4
  58. Format                                   : UTF-8
  59. Codec ID                                 : S_TEXT/UTF8
  60. Codec ID/Info                            : UTF-8 Plain Text
  61. Title                                    : English
  62. Language                                 : English
  63. Default                                  : No
  64. Forced                                   : No
  65. Menu
  66. 00:00:00.000                             : en:00:00:00.000
  67. 00:07:57.977                             : en:00:07:57.977
  68. 00:11:13.715                             : en:00:11:13.715
  69. 00:17:42.520                             : en:00:17:42.520
  70. 00:21:57.650                             : en:00:21:57.650
  71. 00:30:29.953                             : en:00:30:29.953
  72. 00:37:04.597                             : en:00:37:04.597
  73. 00:41:24.732                             : en:00:41:24.732
  74. 00:46:33.457                             : en:00:46:33.457
  75. 00:51:43.851                             : en:00:51:43.851
  76. 00:58:31.591                             : en:00:58:31.591
  77. 01:07:04.771                             : en:01:07:04.771
  78. 01:11:32.538                             : en:01:11:32.538
  79. 01:17:46.120                             : en:01:17:46.120
  80. 01:23:49.608                             : en:01:23:49.608
  81. 01:32:09.107                             : en:01:32:09.107
复制代码









                                       
                                       

                                       
                                       
                                       




回复

使用道具 举报

懒得打字嘛,点击右侧快捷回复 【右侧内容,后台自定义】
您需要登录后才可以回帖 登录 | 立即加入

本版积分规则

Archiver| |网站地图

Copyright © 2024 Comsenz Inc. Powered by 蓝光电影网

本站内容由用户自主分享和转载自互联网,转载目的在于传递更多信息,并不代表本网赞同其观点和对其真实性负责。

如有侵权、违反国家法律政策行为,请联系我们,我们会第一时间及时清除和处理!

举报反馈邮箱:4k1080.com@gmail.com

快速回复 返回顶部 返回列表