找回密码

查看: 1040|回复: 0

[其他] 群鸟 The.Birds.1963.1080p.BluRay.x264.DTS-HD.MA.2.0-SWTYBLZ 11.14GB

[复制链接]
蓝光币
2048
发表于 2020-9-17 09:14:16 | 显示全部楼层 |阅读模式


◎译  名 群鸟/Alfred Hitchcock's The Birds/鸟
◎片  名 The Birds
◎年  代 1963
◎产  地 美国
◎类  别 悬疑 / 惊悚 / 灾难
◎语  言 英语
◎上映日期 1963-03-28(美国)
◎IMDb评分  7.7/10 from 167668 users
◎IMDb链接  https://www.imdb.com/title/tt0056869/
◎豆瓣评分 8.1/10 from 45617 users
◎豆瓣链接 https://movie.douban.com/subject/1310175/
◎片  长 119 分钟
◎导  演 阿尔弗雷德·希区柯克 Alfred Hitchcock
◎编  剧 达芙妮·杜穆里埃 Daphne Du Maurier / 伊万·亨特 Evan Hunter
◎主  演 罗德·泰勒 Rod Taylor
       杰西卡·坦迪 Jessica Tandy
       苏珊娜·普莱舍特 Suzanne Pleshette
       蒂比·海德莉 Tippi Hedren
       维罗尼卡·卡维特 Veronica Cartwright
       艾塞尔·格里菲斯 Ethel Griffies
       查尔斯·麦格劳 Charles McGraw
       鲁斯·麦克德维特 Ruth McDevitt
       朗尼·查普曼 Lonny Chapman
       乔·马特尔 Joe Mantell
       马尔科姆·阿特伯里 Malcolm Atterbury
       约翰·麦戈文 John McGovern
       卡尔·斯温森 Karl Swenson
       理查德·迪肯 Richard Deacon
       伊莉莎白·威尔森 Elizabeth Wilson
       比尔·奎因 Bill Quinn
       多琳郎 Doreen Lang
       摩根·布尼塔尼 Morgan Brittany
       阿尔弗雷德·希区柯克 Alfred Hitchcock
       戴尔·麦肯南 Dal McKennon
       罗珊妮·图尼斯 Roxanne Tunis
       Doodles Weaver
       Darlene Conley
       Renn Reed
       Jeannie Russell
◎标  签 希区柯克 | 惊悚 | 美国 | 悬疑 | AlfredHitchcock | 典范 | 美国电影 | 1963
◎简  介


  米兰妮(蒂比·海德莉 Tippi Hedren 饰)是一个富家女,偶然在宠物店里碰见律师米契(罗德泰勒Rod Taylor 饰),二人萌生爱意。第二天米兰妮带着她的一对宠物鹦鹉到访米契居住的波德加湾小镇,却被一只海鸥攻击,就地受伤。但是谁也没推测,此次鸟攻击人的事务,只是鸟类大范围进犯人类的弁言幕。
  
  米兰妮留在镇上疗伤,这里柳绿桃红,生活原本安静,她还熟悉了米契的家人和前女友,于米契的豪情也渐渐升温,可是鸟类的出没对他们生活的骚扰水平也渐渐升级。这些鸟聚集的越来越多,黑压压的一大片,被它们进犯至伤甚至至死的居民日渐增加,这个小镇堕入一片疯狂的鸟灾傍边。人们恐惧接近解体,若何赶紧逃走这个可骇的地方,成了他们迫在眉梢的题目。
◎获奖情况
  第36届奥斯卡金像奖 ?(1964)
  最好视觉结果(提名) 乌布·伊沃克斯
  
  第21届金球奖 ?(1964)
  电影类年度女新星 蒂比·海德莉
  1. Video
  2. ID                                       : 1
  3. Format                                   : AVC
  4. Format/Info                              : Advanced Video Codec
  5. Format profile                           : [email protected]
  6. Format settings                          : CABAC / 4 Ref Frames
  7. Format settings, CABAC                   : Yes
  8. Format settings, Reference frames        : 4 frames
  9. Codec ID                                 : V_MPEG4/ISO/AVC
  10. Duration                                 : 1 h 59 min
  11. Bit rate                                 : 11.5 Mb/s
  12. Width                                    : 1 920 pixels
  13. Height                                   : 1 038 pixels
  14. Display aspect ratio                     : 1.85:1
  15. Frame rate mode                          : Constant
  16. Frame rate                               : 23.976 (24000/1001/189150) FPS
  17. Color space                              : YUV
  18. Chroma subsampling                       : 4:2:0
  19. Bit depth                                : 8 bits
  20. Scan type                                : Progressive
  21. Bits/(Pixel*Frame)                       : 0.241
  22. Stream size                              : 9.62 GiB (86%)
  23. Title                                    : The.Birds.1963.1080p.BluRay.x264.DTS-HD.MA.2.0-SWTYBLZ
  24. Writing library                          : x264 core 157 r2935 545de2f
  25. Encoding settings                        : cabac=1 / ref=4 / deblock=1:-1:-1 / analyse=0x3:0x133 / me=umh / subme=10 / psy=1 / psy_rd=1.00:0.15 / mixed_ref=1 / me_range=48 / chroma_me=1 / trellis=2 / 8x8dct=1 / cqm=0 / deadzone=21,11 / fast_pskip=1 / chroma_qp_offset=-3 / threads=32 / lookahead_threads=5 / sliced_threads=0 / nr=0 / decimate=0 / interlaced=0 / bluray_compat=0 / constrained_intra=0 / bframes=8 / b_pyramid=2 / b_adapt=2 / b_bias=0 / direct=3 / weightb=1 / open_gop=0 / weightp=2 / keyint=250 / keyint_min=23 / scenecut=40 / intra_refresh=0 / rc_lookahead=60 / rc=crf / mbtree=1 / crf=21.0 / qcomp=0.60 / qpmin=0 / qpmax=69 / qpstep=4 / ip_ratio=1.40 / aq=1:1.00
  26. Default                                  : Yes
  27. Forced                                   : No
  28. Audio
  29. ID                                       : 2
  30. ID in the original source medium         : 4352 (0x1100)
  31. Format                                   : DTS XLL
  32. Format/Info                              : Digital Theater Systems
  33. Commercial name                          : DTS-HD Master Audio
  34. Codec ID                                 : A_DTS
  35. Duration                                 : 1 h 59 min
  36. Bit rate mode                            : Variable
  37. Bit rate                                 : 1 785 kb/s
  38. Channel(s)                               : 2 channels
  39. Channel layout                           : L R
  40. Sampling rate                            : 48.0 kHz
  41. Frame rate                               : 93.750 FPS (512 SPF)
  42. Bit depth                                : 24 bits
  43. Compression mode                         : Lossless
  44. Stream size                              : 1.49 GiB (13%)
  45. Title                                    : The.Birds.1963.1080p.BluRay.x264.DTS-HD.MA.2.0-SWTYBLZ
  46. Language                                 : English
  47. Default                                  : Yes
  48. Forced                                   : No
  49. Original source medium                   : Blu-ray
  50. Text #1
  51. ID                                       : 3
  52. Format                                   : UTF-8
  53. Codec ID                                 : S_TEXT/UTF8
  54. Codec ID/Info                            : UTF-8 Plain Text
  55. Duration                                 : 1 h 56 min
  56. Bit rate                                 : 56 b/s
  57. Count of elements                        : 1428
  58. Stream size                              : 47.8 KiB (0%)
  59. Title                                    : English-SRT
  60. Language                                 : English
  61. Default                                  : Yes
  62. Forced                                   : No
  63. Text #2
  64. ID                                       : 4
  65. ID in the original source medium         : 4768 (0x12A0)
  66. Format                                   : PGS
  67. Muxing mode                              : zlib
  68. Codec ID                                 : S_HDMV/PGS
  69. Codec ID/Info                            : Picture based subtitle format used on BDs/HD-DVDs
  70. Duration                                 : 1 h 58 min
  71. Bit rate                                 : 38.5 kb/s
  72. Count of elements                        : 3156
  73. Stream size                              : 32.7 MiB (0%)
  74. Title                                    : English-PGS
  75. Language                                 : English
  76. Default                                  : No
  77. Forced                                   : No
  78. Original source medium                   : Blu-ray
  79. Text #3
  80. ID                                       : 5
  81. ID in the original source medium         : 4769 (0x12A1)
  82. Format                                   : PGS
  83. Muxing mode                              : zlib
  84. Codec ID                                 : S_HDMV/PGS
  85. Codec ID/Info                            : Picture based subtitle format used on BDs/HD-DVDs
  86. Duration                                 : 1 h 57 min
  87. Bit rate                                 : 33.4 kb/s
  88. Count of elements                        : 2304
  89. Stream size                              : 28.0 MiB (0%)
  90. Title                                    : German-PGS
  91. Language                                 : German
  92. Default                                  : No
  93. Forced                                   : No
  94. Original source medium                   : Blu-ray
  95. Text #4
  96. ID                                       : 6
  97. ID in the original source medium         : 4770 (0x12A2)
  98. Format                                   : PGS
  99. Muxing mode                              : zlib
  100. Codec ID                                 : S_HDMV/PGS
  101. Codec ID/Info                            : Picture based subtitle format used on BDs/HD-DVDs
  102. Duration                                 : 1 h 57 min
  103. Bit rate                                 : 29.5 kb/s
  104. Count of elements                        : 2308
  105. Stream size                              : 24.7 MiB (0%)
  106. Title                                    : Italian-PGS
  107. Language                                 : Italian
  108. Default                                  : No
  109. Forced                                   : No
  110. Original source medium                   : Blu-ray
  111. Text #5
  112. ID                                       : 7
  113. ID in the original source medium         : 4771 (0x12A3)
  114. Format                                   : PGS
  115. Muxing mode                              : zlib
  116. Codec ID                                 : S_HDMV/PGS
  117. Codec ID/Info                            : Picture based subtitle format used on BDs/HD-DVDs
  118. Duration                                 : 1 h 57 min
  119. Bit rate                                 : 30.0 kb/s
  120. Count of elements                        : 2306
  121. Stream size                              : 25.2 MiB (0%)
  122. Title                                    : Spanish-PGS
  123. Language                                 : Spanish
  124. Default                                  : No
  125. Forced                                   : No
  126. Original source medium                   : Blu-ray
  127. Menu
  128. 00:00:00.000                             : en:Chapter 01
  129. 00:01:46.564                             : en:Chapter 02
  130. 00:09:37.410                             : en:Chapter 03
  131. 00:20:07.164                             : en:Chapter 04
  132. 00:29:36.733                             : en:Chapter 05
  133. 00:32:17.810                             : en:Chapter 06
  134. 00:41:01.000                             : en:Chapter 07
  135. 00:47:50.826                             : en:Chapter 08
  136. 00:54:03.198                             : en:Chapter 09
  137. 00:58:54.405                             : en:Chapter 10
  138. 01:08:17.718                             : en:Chapter 11
  139. 01:15:50.003                             : en:Chapter 12
  140. 01:24:27.896                             : en:Chapter 13
  141. 01:26:20.967                             : en:Chapter 14
  142. 01:28:03.861                             : en:Chapter 15
  143. 01:29:44.837                             : en:Chapter 16
  144. 01:33:57.256                             : en:Chapter 17
  145. 01:45:16.435                             : en:Chapter 18
  146. 01:51:18.171                             : en:Chapter 19
  147. 01:56:21.140                             : en:Chapter 20
复制代码






                                       
                                       

                                       
                                       
                                       




回复

使用道具 举报

懒得打字嘛,点击右侧快捷回复 【右侧内容,后台自定义】
您需要登录后才可以回帖 登录 | 立即加入

本版积分规则

Archiver| |网站地图

Copyright © 2024 Comsenz Inc. Powered by 蓝光电影网

本站内容由用户自主分享和转载自互联网,转载目的在于传递更多信息,并不代表本网赞同其观点和对其真实性负责。

如有侵权、违反国家法律政策行为,请联系我们,我们会第一时间及时清除和处理!

举报反馈邮箱:4k1080.com@gmail.com

快速回复 返回顶部 返回列表