找回密码

查看: 907|回复: 0

[动作] 撕票風雲 Black.Ransom.2010.1080p.BluRay.x264-SSF 6.55GB

[复制链接]
蓝光币
2039
发表于 2019-6-26 17:00:10 | 显示全部楼层 |阅读模式


◎译  名 撕票风云 / Black Ransom / 变种差人 / 黑白战警
◎片  名 撕票風雲
◎年  代 2010
◎产  地 香港
◎类  别 行动 / 惊悚
◎语  言 粤语
◎上映日期 2010-01-07
◎IMDb评分  5.8/10 from 476 users
◎IMDb链接  http://www.imdb.com/title/tt1572168
◎豆瓣评分 5.9/10 from 7599 users
◎豆瓣链接 https://movie.douban.com/subject/4189695/
◎片  长 93 分钟
◎导  演 姜百姓
◎编  剧 王晶
◎主  演 苗侨伟
      任达华
      陈法拉
      刘洋
      安志杰
      黄德斌
      瞿颖
      王子涵
      释行宇
      陈宝辕

◎标  签 香港电影 | 香港 | 警匪 | 任达华 | 苗侨伟 | 行动 | 犯罪 | 2010
◎简  介  
  连串黑帮老迈遭绑架、勒索以及撕票,警方对此案观察毫无眉目。警队B组队长张博文(任达华 饰)曾为警队立下汗马功勋,但从其妻子遭黑帮报复被杀后,加上A组队长的排挤,他起头悲观处世。警方接到报案,又一黑帮头子遭绑架,新任总警司古国强(陈法拉 饰)召集两组人马对此案展开周全侦察。由于A组队长轻敌,加上犯罪份子做案手法高明,配合周密,在一次行动中警方蒙受重创。此时,在古警司的请求下,张博文率领手下唯一的两名捕快起头黑暗观察此案。经过慎密观察以后,张博文把犯罪份子的头子方针锁定为曾为警方督察的何湛森(苗侨伟 饰),他的手下包括多名原飞虎队成员,而何湛森绑架黑帮老迈的实在目标是为其被黑帮报复杀戮的弟弟的报仇……
  1. Video
  2. ID                                       : 1
  3. Format                                   : AVC
  4. Format/Info                              : Advanced Video Codec
  5. Format profile                           : [email protected]
  6. Format settings                          : CABAC / 5 Ref Frames
  7. Format settings, CABAC                   : Yes
  8. Format settings, ReFrames                : 5 frames
  9. Codec ID                                 : V_MPEG4/ISO/AVC
  10. Duration                                 : 1 h 32 min
  11. Bit rate                                 : 8 641 kb/s
  12. Width                                    : 1 920 pixels
  13. Height                                   : 816 pixels
  14. Display aspect ratio                     : 2.35:1
  15. Frame rate mode                          : Constant
  16. Frame rate                               : 24.000 FPS
  17. Color space                              : YUV
  18. Chroma subsampling                       : 4:2:0
  19. Bit depth                                : 8 bits
  20. Scan type                                : Progressive
  21. Bits/(Pixel*Frame)                       : 0.230
  22. Stream size                              : 5.45 GiB (83%)
  23. Writing library                          : x264 core 98 r1643 59a9e03
  24. Encoding settings                        : cabac=1 / ref=5 / deblock=1:0:0 / analyse=0x3:0x133 / me=umh / subme=7 / psy=1 / psy_rd=1.00:0.15 / mixed_ref=1 / me_range=16 / chroma_me=1 / trellis=1 / 8x8dct=1 / cqm=0 / deadzone=21,11 / fast_pskip=0 / chroma_qp_offset=-3 / threads=12 / sliced_threads=0 / nr=0 / decimate=0 / interlaced=0 / constrained_intra=0 / bframes=3 / b_pyramid=2 / b_adapt=1 / b_bias=0 / direct=1 / weightb=1 / weightp=2 / keyint=250 / keyint_min=25 / scenecut=40 / intra_refresh=0 / rc_lookahead=40 / rc=2pass / mbtree=1 / bitrate=8641 / ratetol=1.0 / qcomp=0.60 / qpmin=10 / qpmax=51 / qpstep=4 / cplxblur=20.0 / qblur=0.5 / ip_ratio=1.40 / aq=2:1.00
  25. Language                                 : English
  26. Default                                  : No
  27. Forced                                   : No
  28. Audio
  29. ID                                       : 2
  30. Format                                   : DTS
  31. Format/Info                              : Digital Theater Systems
  32. Codec ID                                 : A_DTS
  33. Duration                                 : 1 h 32 min
  34. Bit rate mode                            : Constant
  35. Bit rate                                 : 1 509 kb/s
  36. Channel(s)                               : 6 channels
  37. Channel layout                           : C L R Ls Rs LFE
  38. Sampling rate                            : 48.0 kHz
  39. Frame rate                               : 93.750 FPS (512 SPF)
  40. Bit depth                                : 16 bits
  41. Compression mode                         : Lossy
  42. Stream size                              : 998 MiB (15%)
  43. Language                                 : Chinese
  44. Default                                  : Yes
  45. Forced                                   : No
  46. Text
  47. ID                                       : 3
  48. Format                                   : UTF-8
  49. Codec ID                                 : S_TEXT/UTF8
  50. Codec ID/Info                            : UTF-8 Plain Text
  51. Language                                 : English
  52. Default                                  : Yes
  53. Forced                                   : No
复制代码






                                       
                                       

                                       
                                       
                                       




回复

使用道具 举报

懒得打字嘛,点击右侧快捷回复 【右侧内容,后台自定义】
您需要登录后才可以回帖 登录 | 立即加入

本版积分规则

Archiver| |网站地图

Copyright © 2024 Comsenz Inc. Powered by 蓝光电影网

本站内容由用户自主分享和转载自互联网,转载目的在于传递更多信息,并不代表本网赞同其观点和对其真实性负责。

如有侵权、违反国家法律政策行为,请联系我们,我们会第一时间及时清除和处理!

举报反馈邮箱:4k1080.com@gmail.com

快速回复 返回顶部 返回列表