找回密码

查看: 1360|回复: 0

[喜剧] 安全邻域 Better.Watch.Out.2017.LIMITED.1080p.BluRay.x264-GECKOS 6.56GB

[复制链接]
蓝光币
2039
发表于 2020-12-12 11:17:52 | 显示全部楼层 |阅读模式


◎译  名 平安邻域/Safe Neighborhood/谨慎为上/最好谨慎(台)
◎片  名 Better Watch Out
◎年  代 2016
◎产  地 美国,澳大利亚
◎类  别 笑剧 / 可骇
◎语  言 英语
◎上映日期 2016-09-22(奇异电影节) / 2017-10-06(美国)
◎IMDb评分  6.5/10 from 30112 users
◎IMDb链接  https://www.imdb.com/title/tt4443658/
◎豆瓣评分 6.5/10 from 7840 users
◎豆瓣链接 https://movie.douban.com/subject/26731238/
◎片  长 89分钟
◎导  演 克里斯·佩寇维 Chris Peckover
◎编  剧 扎克·卡恩 Zack Kahn / 克里斯·佩寇维 Chris Peckover
◎主  演 奥利维亚·德容格 Olivia DeJonge
       维吉妮娅·马德森 Virginia Madsen
       帕特里克·沃伯顿 Patrick Warburton
       戴克·蒙哥马利 Dacre Montgomery
       莱维·米勒 Levi Miller
       艾德·奥克森博尔德 Ed Oxenbould
       亚历克斯·米基克 Aleks Mikic
       塔拉·杰德·博格 Tara Jade Borg
       布伦丹·克莱金 Brendan Clearkin
       崔西娅·玛丽·亨尼西 Tricia Mary Hennessy
◎标  签 惊悚 | 犯罪 | 可骇 | 美国 | 儿童 | 笑剧 | 澳大利亚 | 2016
◎简  介


  血腥版《小鬼当家》,口碑还不错的儿童可骇新片,“小飞侠”莱维·米勒饰演的男配角,怙恃假期出门,家中留下他、好友和怙恃找来看管他的保姆。这晚闯入者来找小保姆麻烦,却被逮到还被残暴的熬煎...
  1. Video
  2. ID                                       : 1
  3. Format                                   : AVC
  4. Format/Info                              : Advanced Video Codec
  5. Format profile                           : [email protected]
  6. Format settings                          : CABAC / 5 Ref Frames
  7. Format settings, CABAC                   : Yes
  8. Format settings, Reference frames        : 5 frames
  9. Codec ID                                 : V_MPEG4/ISO/AVC
  10. Duration                                 : 1 h 28 min
  11. Bit rate                                 : 9 059 kb/s
  12. Width                                    : 1 920 pixels
  13. Height                                   : 808 pixels
  14. Display aspect ratio                     : 2.40:1
  15. Frame rate mode                          : Constant
  16. Frame rate                               : 24.000 FPS
  17. Color space                              : YUV
  18. Chroma subsampling                       : 4:2:0
  19. Bit depth                                : 8 bits
  20. Scan type                                : Progressive
  21. Bits/(Pixel*Frame)                       : 0.243
  22. Stream size                              : 5.62 GiB (86%)
  23. Writing library                          : x264 core 152 r2851 ba24899
  24. Encoding settings                        : cabac=1 / ref=5 / deblock=1:0:0 / analyse=0x3:0x133 / me=umh / subme=7 / psy=1 / psy_rd=1.00:0.00 / mixed_ref=1 / me_range=16 / chroma_me=1 / trellis=1 / 8x8dct=1 / cqm=0 / deadzone=21,11 / fast_pskip=0 / chroma_qp_offset=-2 / threads=24 / lookahead_threads=4 / sliced_threads=0 / nr=0 / decimate=1 / interlaced=0 / bluray_compat=0 / constrained_intra=0 / bframes=3 / b_pyramid=2 / b_adapt=1 / b_bias=0 / direct=1 / weightb=1 / open_gop=0 / weightp=2 / keyint=250 / keyint_min=23 / scenecut=40 / intra_refresh=0 / rc_lookahead=40 / rc=2pass / mbtree=1 / bitrate=9059 / ratetol=1.0 / qcomp=0.60 / qpmin=0 / qpmax=69 / qpstep=4 / cplxblur=20.0 / qblur=0.5 / ip_ratio=1.40 / aq=1:1.00
  25. Language                                 : English
  26. Default                                  : Yes
  27. Forced                                   : No

  28. Audio
  29. ID                                       : 2
  30. Format                                   : DTS
  31. Format/Info                              : Digital Theater Systems
  32. Codec ID                                 : A_DTS
  33. Duration                                 : 1 h 28 min
  34. Bit rate mode                            : Constant
  35. Bit rate                                 : 1 509 kb/s
  36. Channel(s)                               : 6 channels
  37. Channel layout                           : C L R Ls Rs LFE
  38. Sampling rate                            : 48.0 kHz
  39. Frame rate                               : 93.750 FPS (512 SPF)
  40. Bit depth                                : 24 bits
  41. Compression mode                         : Lossy
  42. Stream size                              : 959 MiB (14%)
  43. Language                                 : English
  44. Default                                  : Yes
  45. Forced                                   : No
复制代码



                                       
                                       

                                       
                                       
                                       




回复

使用道具 举报

懒得打字嘛,点击右侧快捷回复 【右侧内容,后台自定义】
您需要登录后才可以回帖 登录 | 立即加入

本版积分规则

Archiver| |网站地图

Copyright © 2024 Comsenz Inc. Powered by 蓝光电影网

本站内容由用户自主分享和转载自互联网,转载目的在于传递更多信息,并不代表本网赞同其观点和对其真实性负责。

如有侵权、违反国家法律政策行为,请联系我们,我们会第一时间及时清除和处理!

举报反馈邮箱:4k1080.com@gmail.com

快速回复 返回顶部 返回列表