找回密码

查看: 873|回复: 0

[动作] 极度冒险/硬闯百分百危险 Maximum.Risk.1996.1080p.BluRay.x264-SECTOR7 7.94GB

[复制链接]
蓝光币
2048
发表于 2019-6-24 20:33:35 | 显示全部楼层 |阅读模式


◎译  名 极端冒险 / 硬闯百分百危险
◎片  名 Maximum Risk
◎年  代 1996
◎产  地 美国
◎类  别 行动 / 惊悚 / 犯罪 / 冒险
◎语  言 英语
◎上映日期 1996-09-13(美国)
◎IMDb评分  5.5/10 from 18707 users
◎IMDb链接  http://www.imdb.com/title/tt0117011
◎豆瓣评分 6.0/10 from 800 users
◎豆瓣链接 https://movie.douban.com/subject/1295470/
◎片  长 101 分钟
◎导  演 林岭东 Ringo Lam
◎编  剧 Larry Ferguson
◎主  演 尚格·云顿 Jean-Claude Van Damme
      娜塔莎·亨斯屈奇 Natasha Henstridge

◎标  签 行动 | 美国 | 尚格·云顿 | 林岭东 | 犯罪 | 美国电影 | 1996 | 暴力
◎简  介  
  法国南部某城市,一男人在街巷间躲避一群壮汉的追逐,掠取了一辆摩托小货车的男人慌不择路,与一辆轿车相撞后身死……经手此案的警察索伯斯坦(Jean-Hugues Anglade  饰)找到自己昔日战友阿雷·莫洛(尚格·云顿 Jean-Claude Van Damme 饰),由于后者的长相和死去的男人如出一辙,死者有一个俄国名字米哈伊·苏洛瓦夫。莫洛得知自己本有一位双胞胎弟弟,后被贫病中的母亲送给某律师找人收养。
莫洛与同伴奔赴法国,却发现律师本人刚被枪杀,莫洛决议沿着米哈伊遗留下来的护照跟机票,前往纽约观察。莫洛在一位出租车司机的帮助下,找到了关键字“波西米亚”的寄义——一家和美国俄裔黑帮联系亲近的夜总会,而“亚历克斯”则是指夜总会内的一位艳丽女郎(Natasha Henstridge 饰),由此起头,莫洛逐步进入到美国俄裔黑帮的天下中去……
  1. Video
  2. ID                                       : 1
  3. Format                                   : AVC
  4. Format/Info                              : Advanced Video Codec
  5. Format profile                           : [email protected]
  6. Format settings                          : CABAC / 5 Ref Frames
  7. Format settings, CABAC                   : Yes
  8. Format settings, ReFrames                : 5 frames
  9. Codec ID                                 : V_MPEG4/ISO/AVC
  10. Duration                                 : 1 h 40 min
  11. Bit rate                                 : 10.7 Mb/s
  12. Width                                    : 1 920 pixels
  13. Height                                   : 800 pixels
  14. Display aspect ratio                     : 2.40:1
  15. Frame rate mode                          : Constant
  16. Frame rate                               : 23.976 FPS
  17. Color space                              : YUV
  18. Chroma subsampling                       : 4:2:0
  19. Bit depth                                : 8 bits
  20. Scan type                                : Progressive
  21. Bits/(Pixel*Frame)                       : 0.290
  22. Stream size                              : 7.33 GiB (92%)
  23. Writing library                          : x264 core 60 r928M 4816918
  24. Encoding settings                        : cabac=1 / ref=5 / deblock=1:-1:-1 / analyse=0x3:0x133 / me=umh / subme=6 / psy_rd=1.000000 / brdo=1 / mixed_ref=1 / me_range=16 / chroma_me=1 / trellis=0 / 8x8dct=1 / cqm=1 / deadzone=21,11 / chroma_qp_offset=0 / threads=8 / nr=0 / decimate=1 / mbaff=0 / bframes=3 / b_pyramid=1 / b_adapt=1 / b_bias=0 / direct=3 / wpredb=1 / bime=1 / keyint=240 / keyint_min=24 / scenecut=40(pre) / rc=2pass / bitrate=10668 / ratetol=1.0 / rceq=\'blurCplx^(1-qComp)\' / qcomp=1.00 / qpmin=10 / qpmax=51 / qpstep=4 / cplxblur=20.0 / qblur=0.5 / ip_ratio=1.40 / pb_ratio=1.30 / aq=2:1.00
  25. Language                                 : English
  26. Default                                  : Yes
  27. Forced                                   : No
  28. Audio
  29. ID                                       : 2
  30. Format                                   : AC-3
  31. Format/Info                              : Audio Coding 3
  32. Codec ID                                 : A_AC3
  33. Duration                                 : 1 h 40 min
  34. Bit rate mode                            : Constant
  35. Bit rate                                 : 640 kb/s
  36. Channel(s)                               : 6 channels
  37. Channel positions                        : Front: L C R, Side: L R, LFE
  38. Sampling rate                            : 48.0 kHz
  39. Frame rate                               : 31.250 FPS (1536 SPF)
  40. Bit depth                                : 16 bits
  41. Compression mode                         : Lossy
  42. Stream size                              : 460 MiB (6%)
  43. Service kind                             : Complete Main
  44. Default                                  : Yes
  45. Forced                                   : No
复制代码









                                       
                                       

                                       
                                       
                                       




回复

使用道具 举报

懒得打字嘛,点击右侧快捷回复 【右侧内容,后台自定义】
您需要登录后才可以回帖 登录 | 立即加入

本版积分规则

Archiver| |网站地图

Copyright © 2024 Comsenz Inc. Powered by 蓝光电影网

本站内容由用户自主分享和转载自互联网,转载目的在于传递更多信息,并不代表本网赞同其观点和对其真实性负责。

如有侵权、违反国家法律政策行为,请联系我们,我们会第一时间及时清除和处理!

举报反馈邮箱:4k1080.com@gmail.com

快速回复 返回顶部 返回列表