找回密码

查看: 1108|回复: 0

[喜剧] 颠倒乾坤/交易地点 Trading.Places.1983.1080p.BluRay.x264.DD5.1-FGT 7.23GB

[复制链接]
蓝光币
2039
发表于 2020-12-12 09:25:48 | 显示全部楼层 |阅读模式


◎译  名 颠倒乾坤/买卖地址/买卖所/你整我,我整你/运转乾坤
◎片  名 Trading Places
◎年  代 1983
◎产  地 美国
◎类  别 笑剧
◎语  言 英语
◎上映日期 1983-06-08(美国)
◎IMDb评分  7.5/10 from 133817 users
◎IMDb链接  https://www.imdb.com/title/tt0086465/
◎豆瓣评分 7.6/10 from 4460 users
◎豆瓣链接 https://movie.douban.com/subject/1301553/
◎片  长 116分钟
◎导  演 约翰·兰迪斯 John Landis
◎编  剧 蒂莫西·哈里斯 Timothy Harris / 赫舍尔·魏因格罗德 Herschel Weingrod
◎主  演 丹·艾克罗伊德 Dan Aykroyd
       艾迪·墨菲 Eddie Murphy
       拉尔夫·贝拉米 Ralph Bellamy
       唐·阿米契 Don Ameche
       丹霍姆·艾略特 Denholm Elliott
       罗伯特·柯蒂斯·布朗 Robert Curtis Brown
       克里斯汀·霍尔比 Kristin Holby
       詹姆斯·埃克豪斯 James Eckhouse
       保罗·格里森 Paul Gleason
       弗兰克·奥兹 Frank Oz
       杰米·李·柯蒂斯 Jamie Lee Curtis
       凯莉·柯蒂斯 Kelly Curtis
       博·迪德利 Bo Diddley
       詹姆斯·贝鲁什 James Belushi
       艾尔·弗兰肯 Al Franken
       汤姆·戴维斯 Tom Davis
       理查德·亨特 Richard Hunt
       汤姆·马迪罗沙 Tom Mardirosian
       埃文·朗 Avon Long
       约翰·麦柯瑞 John McCurry
       Robert Earl Jones
       Gary Howard Klar
       尼古拉斯·格斯特 Nicholas Guest
       Walt Gorney
       Tom Degidon
       伯尼·麦克伦尼 Bernie McInerney
       William Magerman
       户田惠子 Keiko Toda
       Bill Boggs
       Maurice Woods
       罗恩·泰勒 Ron Taylor
       Stephen Stucker
       Deborah Reagan
       P. Jay Sidney
       Michelle Mais
       Alfred Drake
       巴里·丹尼 Barry Dennen
       比尔·考布斯 Bill Cobbs
       Arleen Sorkin
       阿非莫·奥米拉 Afemo Omilami
       杰克·戴维森 Jack Davidson
       W.B. Brydon
       Maurice Copeland
       Charles Brown
       拉尔夫克兰顿 Ralph Clanton
       约翰·贝德福德·劳埃德 John Bedford Lloyd
       B. Constance Barry
       菲利普·博斯科 Philip Bosco
       托尼·德文 Tony Devon
       吉安卡罗·埃斯波西托 Giancarlo Esposito
       布赖恩·克拉克 Bryan Clark
◎标  签 贸易 | 美国 | 笑剧 | 金融 | 美国电影 | 人性 | 政治金融 | 1983
◎简  介


  路易斯·温索普三世(丹·艾克罗伊德 Dan Aykroyd饰),一位功成名就的华尔街投资家。黑人比利·雷·瓦伦丁(艾迪·墨菲 Eddie Murphy饰),一个为了讨口饭吃而打扮成残废甲士沿街乞讨的流浪汉。两个生活在天地之别天下里的人,居然由于一次赌博而改变了他们的命运。路易斯在兰道夫莫蒂默公爵兄弟公司里工作,有着显赫的职位和优厚的报酬。比利在一次差人的追捕中误入上等俱乐部,碰见了路易斯。而路易斯将他交给了差人,目击全进程的莫蒂默公爵兄弟对此事持有分歧的概念,竟用赌博的方式将二人的身份和职位更调,一场荒诞不羁的命运交换随即上演。
  
  本片荣获1984年第56届奥斯卡金像奖最好歌曲提名,1984年第41届金球奖电影类-音乐笑剧类最好影片提名及最好男配角提名。
◎获奖情况
  第56届奥斯卡金像奖 ?(1984)
  BestMusic,OriginalSongScoreandItsAdaptationorBestAdaptationScore(提名) 埃尔默·伯恩斯坦
  1. Video
  2. ID                                       : 1
  3. Format                                   : AVC
  4. Format/Info                              : Advanced Video Codec
  5. Format profile                           : [email protected]
  6. Format settings                          : CABAC / 4 Ref Frames
  7. Format settings, CABAC                   : Yes
  8. Format settings, Reference frames        : 4 frames
  9. Codec ID                                 : V_MPEG4/ISO/AVC
  10. Duration                                 : 1 h 56 min
  11. Bit rate                                 : 8 248 kb/s
  12. Width                                    : 1 920 pixels
  13. Height                                   : 1 080 pixels
  14. Display aspect ratio                     : 16:9
  15. Frame rate mode                          : Constant
  16. Frame rate                               : 23.976 FPS
  17. Color space                              : YUV
  18. Chroma subsampling                       : 4:2:0
  19. Bit depth                                : 8 bits
  20. Scan type                                : Progressive
  21. Bits/(Pixel*Frame)                       : 0.166
  22. Stream size                              : 6.56 GiB (91%)
  23. Writing library                          : x264 core 68 r1183M f21daff
  24. Encoding settings                        : cabac=1 / ref=4 / deblock=1:-3:-3 / analyse=0x3:0x113 / me=umh / subme=9 / psy_rd=1.0:0.0 / mixed_ref=1 / me_range=32 / chroma_me=1 / trellis=2 / 8x8dct=1 / cqm=0 / deadzone=21,11 / chroma_qp_offset=-2 / threads=6 / nr=0 / decimate=1 / mbaff=0 / bframes=3 / b_pyramid=1 / b_adapt=2 / b_bias=0 / direct=3 / wpredb=1 / keyint=250 / keyint_min=25 / scenecut=40 / rc=2pass / bitrate=8248 / ratetol=1.0 / qcomp=0.60 / qpmin=10 / qpmax=51 / qpstep=4 / cplxblur=20.0 / qblur=0.5 / ip_ratio=1.40 / pb_ratio=1.30 / aq=1:0.80
  25. Language                                 : English
  26. Default                                  : Yes
  27. Forced                                   : No

  28. Audio
  29. ID                                       : 2
  30. Format                                   : AC-3
  31. Format/Info                              : Audio Coding 3
  32. Commercial name                          : Dolby Digital
  33. Codec ID                                 : A_AC3
  34. Duration                                 : 1 h 56 min
  35. Bit rate mode                            : Constant
  36. Bit rate                                 : 640 kb/s
  37. Channel(s)                               : 6 channels
  38. Channel layout                           : L R C LFE Ls Rs
  39. Sampling rate                            : 48.0 kHz
  40. Frame rate                               : 31.250 FPS (1536 SPF)
  41. Compression mode                         : Lossy
  42. Stream size                              : 533 MiB (7%)
  43. Language                                 : English
  44. Service kind                             : Complete Main
  45. Default                                  : Yes
  46. Forced                                   : No

  47. Text
  48. ID                                       : 3
  49. Format                                   : UTF-8
  50. Codec ID                                 : S_TEXT/UTF8
  51. Codec ID/Info                            : UTF-8 Plain Text
  52. Language                                 : English
  53. Default                                  : No
  54. Forced                                   : No
复制代码



                                       
                                       

                                       
                                       
                                       




回复

使用道具 举报

懒得打字嘛,点击右侧快捷回复 【右侧内容,后台自定义】
您需要登录后才可以回帖 登录 | 立即加入

本版积分规则

Archiver| |网站地图

Copyright © 2024 Comsenz Inc. Powered by 蓝光电影网

本站内容由用户自主分享和转载自互联网,转载目的在于传递更多信息,并不代表本网赞同其观点和对其真实性负责。

如有侵权、违反国家法律政策行为,请联系我们,我们会第一时间及时清除和处理!

举报反馈邮箱:4k1080.com@gmail.com

快速回复 返回顶部 返回列表