找回密码

查看: 1392|回复: 0

[动作] 生死格斗 D.O.A.Dead.or.Alive.2006.1080p.BluRay.x264-METiS 6.56GB

[复制链接]
蓝光币
2039
发表于 2019-6-17 20:18:35 | 显示全部楼层 |阅读模式


◎译  名 生死肉搏 / DOA / 死或生
◎片  名 DOA: Dead or Alive
◎年  代 2006
◎产  地 美国 / 德国 / 英国
◎类  别 行动 / 冒险
◎语  言 英语
◎上映日期 2006-09-07
◎IMDb评分  4.8/10 from 41708 users
◎IMDb链接  http://www.imdb.com/title/tt0398913
◎豆瓣评分 5.1/10 from 8698 users
◎豆瓣链接 https://movie.douban.com/subject/1858270/
◎片  长 87 分钟
◎导  演 元奎
◎编  剧 J.F. Lawton / Adam Gross
◎主  演 Jaime Pressly
      戴文青木
      Holly Valance
      Sarah Carter
      Natassia Malthe
      健小杉
      邹兆龙

◎标  签 行动 | 美国 | 游戏改编 | 肉搏 | 美国电影 | DOA | 烂片 | 2006
◎简  介  
  为了追随哥哥的踪影,某国公主霞(戴文青木 Devon Aoki 饰)对峙要加出天下上最威望的肉搏角逐“生死肉搏”,在角逐中,参赛者随时都有丧命的危险,而自己的命只要自己负责。与此同时,女飞贼艾伦(霍莉·瓦兰丝 Holly Valance 饰)、摔跤手蒂娜(杰米·普莱斯利 Jaime Pressly 饰)、游戏主办者的侄女海伦娜(莎拉·卡特 Sarah Carter 饰),以及天下各地的武术高手都收到了角逐的约请函,一帮野心勃勃的武者向着角逐场地奥秘岛进发,他们各有各的隐情,但终极目标都是打垮对手,获得万万奖金。选手们在岛上接管了严酷的练习,角逐层层推动,他们闯五关斩六将,可是随着角逐的停止,某些使人不安的真相渐渐的浮出水面,这场角逐真的仅仅是为了决出天下最强武者而举行的吗?
影片按照热门同名游戏改编而成,以其极高的复原度在广大玩家中引发了共鸣。
  1. Video
  2. ID                                       : 1
  3. Format                                   : AVC
  4. Format/Info                              : Advanced Video Codec
  5. Format profile                           : [email protected]
  6. Format settings, CABAC                   : Yes
  7. Format settings, ReFrames                : 5 frames
  8. Codec ID                                 : V_MPEG4/ISO/AVC
  9. Duration                                 : 1h 26mn
  10. Bit rate                                 : 9 389 Kbps
  11. Width                                    : 1 920 pixels
  12. Height                                   : 816 pixels
  13. Display aspect ratio                     : 2.35:1
  14. Frame rate mode                          : Constant
  15. Frame rate                               : 23.976 fps
  16. Color space                              : YUV
  17. Chroma subsampling                       : 4:2:0
  18. Bit depth                                : 8 bits
  19. Scan type                                : Progressive
  20. Bits/(Pixel*Frame)                       : 0.250
  21. Stream size                              : 5.52 GiB (84%)
  22. Writing library                          : x264 core 67 r1134 b8808bf
  23. Encoding settings                        : cabac=1 / ref=5 / deblock=1:0:0 / analyse=0x3:0x133 / me=umh / subme=7 / psy_rd=1.0:0.0 / mixed_ref=1 / me_range=16 / chroma_me=1 / trellis=1 / 8x8dct=1 / cqm=0 / deadzone=21,11 / chroma_qp_offset=-2 / threads=6 / nr=0 / decimate=1 / mbaff=0 / bframes=3 / b_pyramid=1 / b_adapt=1 / b_bias=0 / direct=1 / wpredb=1 / keyint=250 / keyint_min=25 / scenecut=40 / rc=2pass / bitrate=9389 / ratetol=1.0 / qcomp=0.60 / qpmin=10 / qpmax=51 / qpstep=4 / cplxblur=20.0 / qblur=0.5 / ip_ratio=1.40 / pb_ratio=1.30 / aq=1:1.00
  24. Language                                 : English
  25. Default                                  : Yes
  26. Forced                                   : No
  27. Audio
  28. ID                                       : 2
  29. Format                                   : DTS
  30. Format/Info                              : Digital Theater Systems
  31. Mode                                     : 16
  32. Format settings, Endianness              : Big
  33. Codec ID                                 : A_DTS
  34. Duration                                 : 1h 26mn
  35. Bit rate mode                            : Constant
  36. Bit rate                                 : 1 509 Kbps
  37. Channel(s)                               : 6 channels
  38. Channel positions                        : Front: L C R, Side: L R, LFE
  39. Sampling rate                            : 48.0 KHz
  40. Frame rate                               : 93.750 fps (512 spf)
  41. Bit depth                                : 24 bits
  42. Compression mode                         : Lossy
  43. Stream size                              : 930 MiB (14%)
  44. Default                                  : Yes
  45. Forced                                   : No
复制代码









                                       
                                       

                                       
                                       
                                       




回复

使用道具 举报

懒得打字嘛,点击右侧快捷回复 【右侧内容,后台自定义】
您需要登录后才可以回帖 登录 | 立即加入

本版积分规则

Archiver| |网站地图

Copyright © 2024 Comsenz Inc. Powered by 蓝光电影网

本站内容由用户自主分享和转载自互联网,转载目的在于传递更多信息,并不代表本网赞同其观点和对其真实性负责。

如有侵权、违反国家法律政策行为,请联系我们,我们会第一时间及时清除和处理!

举报反馈邮箱:4k1080.com@gmail.com

快速回复 返回顶部 返回列表