找回密码

查看: 1492|回复: 0

[剧情] 疤面人 Scarface.1932.Alternative.1080p.BluRay.REMUX.AVC.DTS-HD.MA.2.0-FGT 24.06GB

[复制链接]
蓝光币
2039
发表于 2019-10-17 03:39:35 | 显示全部楼层 |阅读模式


◎译  名 疤面人 / Scarface, the Shame of the Nation / The Shame of a Nation / 伤疤脸 / 伤面人 / 疤面煞星
◎片  名 Scarface
◎年  代 1932
◎产  地 美国
◎类  别 剧情 / 行动 / 犯罪 / 黑色电影
◎语  言 英语 / 意大利语
◎上映日期 1932-04-09
◎IMDb评分  7.8/10 from 23301 users
◎IMDb链接  https://www.imdb.com/title/tt0023427
◎豆瓣评分 8.2/10 from 1988 users
◎豆瓣链接 https://movie.douban.com/subject/1299608/
◎片  长 93 分钟
◎导  演 Howard Hawks / Richard Rosson
◎编  剧 Ben Hecht / Seton I. Miller
◎主  演 保罗·穆尼 Paul Muni
       乔治·拉夫特 George Raft
       卡伦·莫利 Karen Morley
       安·德拉克 Ann Dvorak

◎标  签 美国 | 霍华德·霍克斯 | 犯罪 | 黑帮 | 1932 | 1930s | 黑色电影 | 美国电影
◎简  介  
  本片报告了二十年月着名的芝加哥犯罪头子疤面人自突起至暴毙的故事。全片以阿尔卡邦的生平为蓝本,再加上一位有乱伦关系的妹妹,越发使内容显得复杂而敏感,在昔时是具有严重影响力的犯罪片之一。导演霍华德.霍克斯力图使全片看起来活泼刺眼,暴力镜头有跃出银幕之感,配角保罗.茂尼的表演亦光芒四射,为范例电影的典范之作。
  1. Video
  2. ID                                       : 1
  3. Format                                   : AVC
  4. Format/Info                              : Advanced Video Codec
  5. Format profile                           : [email protected]
  6. Format settings                          : CABAC / 4 Ref Frames
  7. Format settings, CABAC                   : Yes
  8. Format settings, Reference frames        : 4 frames
  9. Codec ID                                 : V_MPEG4/ISO/AVC
  10. Duration                                 : 1 h 35 min
  11. Bit rate mode                            : Variable
  12. Bit rate                                 : 32.7 Mb/s
  13. Maximum bit rate                         : 35.0 Mb/s
  14. Width                                    : 1 920 pixels
  15. Height                                   : 1 080 pixels
  16. Display aspect ratio                     : 16:9
  17. Frame rate mode                          : Constant
  18. Frame rate                               : 23.976 (24000/1001) FPS
  19. Color space                              : YUV
  20. Chroma subsampling                       : 4:2:0
  21. Bit depth                                : 8 bits
  22. Scan type                                : Progressive
  23. Bits/(Pixel*Frame)                       : 0.658
  24. Stream size                              : 21.8 GiB (91%)
  25. Title                                    : Scarface.1932.Alternative.1080p.BluRay.REMUX.AVC.DTS-HD.MA.2.0-FGT
  26. Language                                 : English
  27. Default                                  : No
  28. Forced                                   : No
  29. Audio #1
  30. ID                                       : 2
  31. Format                                   : DTS XLL
  32. Format/Info                              : Digital Theater Systems
  33. Commercial name                          : DTS-HD Master Audio
  34. Codec ID                                 : A_DTS
  35. Duration                                 : 1 h 35 min
  36. Bit rate mode                            : Variable
  37. Bit rate                                 : 1 804 kb/s
  38. Channel(s)                               : 2 channels
  39. Channel layout                           : L R
  40. Sampling rate                            : 48.0 kHz
  41. Frame rate                               : 93.750 FPS (512 SPF)
  42. Bit depth                                : 24 bits
  43. Compression mode                         : Lossless
  44. Stream size                              : 1.20 GiB (5%)
  45. Title                                    : Scarface.1932.Alternative.1080p.BluRay.REMUX.AVC.DTS-HD.MA.2.0-FGT
  46. Language                                 : English
  47. Default                                  : Yes
  48. Forced                                   : No
  49. Audio #2
  50. ID                                       : 3
  51. Format                                   : DTS
  52. Format/Info                              : Digital Theater Systems
  53. Codec ID                                 : A_DTS
  54. Duration                                 : 1 h 35 min
  55. Bit rate mode                            : Constant
  56. Bit rate                                 : 1 509 kb/s
  57. Channel(s)                               : 2 channels
  58. Channel layout                           : L R
  59. Sampling rate                            : 48.0 kHz
  60. Frame rate                               : 93.750 FPS (512 SPF)
  61. Bit depth                                : 24 bits
  62. Compression mode                         : Lossy
  63. Stream size                              : 1.01 GiB (4%)
  64. Title                                    : Scarface.1932.Alternative.1080p.BluRay.REMUX.AVC.DTS-HD.MA.2.0-FGT
  65. Language                                 : English
  66. Default                                  : No
  67. Forced                                   : No
  68. Text #1
  69. ID                                       : 4
  70. Format                                   : PGS
  71. Muxing mode                              : zlib
  72. Codec ID                                 : S_HDMV/PGS
  73. Codec ID/Info                            : Picture based subtitle format used on BDs/HD-DVDs
  74. Duration                                 : 1 h 32 min
  75. Bit rate                                 : 44.1 kb/s
  76. Count of elements                        : 2636
  77. Stream size                              : 29.3 MiB (0%)
  78. Title                                    : English-PGS
  79. Language                                 : English
  80. Default                                  : Yes
  81. Forced                                   : No
  82. Text #2
  83. ID                                       : 5
  84. Format                                   : PGS
  85. Muxing mode                              : zlib
  86. Codec ID                                 : S_HDMV/PGS
  87. Codec ID/Info                            : Picture based subtitle format used on BDs/HD-DVDs
  88. Duration                                 : 1 h 34 min
  89. Bit rate                                 : 36.1 kb/s
  90. Count of elements                        : 2102
  91. Stream size                              : 24.3 MiB (0%)
  92. Title                                    : Spanish-PGS
  93. Language                                 : Spanish
  94. Default                                  : No
  95. Forced                                   : No
  96. Text #3
  97. ID                                       : 6
  98. Format                                   : PGS
  99. Muxing mode                              : zlib
  100. Codec ID                                 : S_HDMV/PGS
  101. Codec ID/Info                            : Picture based subtitle format used on BDs/HD-DVDs
  102. Duration                                 : 1 h 34 min
  103. Bit rate                                 : 38.8 kb/s
  104. Count of elements                        : 2386
  105. Stream size                              : 26.1 MiB (0%)
  106. Title                                    : French-PGS
  107. Language                                 : French
  108. Default                                  : No
  109. Forced                                   : No
  110. Menu
  111. 00:00:00.000                             : en:Chapter 01
  112. 00:02:06.835                             : en:Chapter 02
  113. 00:05:27.452                             : en:Chapter 03
  114. 00:12:51.437                             : en:Chapter 04
  115. 00:17:53.739                             : en:Chapter 05
  116. 00:21:59.693                             : en:Chapter 06
  117. 00:28:34.671                             : en:Chapter 07
  118. 00:32:05.798                             : en:Chapter 08
  119. 00:40:00.648                             : en:Chapter 09
  120. 00:44:18.572                             : en:Chapter 10
  121. 00:49:36.890                             : en:Chapter 11
  122. 00:53:54.606                             : en:Chapter 12
  123. 00:58:18.828                             : en:Chapter 13
  124. 01:03:11.329                             : en:Chapter 14
  125. 01:09:02.805                             : en:Chapter 15
  126. 01:15:51.672                             : en:Chapter 16
  127. 01:22:26.066                             : en:Chapter 17
  128. 01:30:42.311                             : en:Chapter 18
复制代码






                                       
                                       

                                       
                                       
                                       




回复

使用道具 举报

懒得打字嘛,点击右侧快捷回复 【右侧内容,后台自定义】
您需要登录后才可以回帖 登录 | 立即加入

本版积分规则

Archiver| |网站地图

Copyright © 2024 Comsenz Inc. Powered by 蓝光电影网

本站内容由用户自主分享和转载自互联网,转载目的在于传递更多信息,并不代表本网赞同其观点和对其真实性负责。

如有侵权、违反国家法律政策行为,请联系我们,我们会第一时间及时清除和处理!

举报反馈邮箱:4k1080.com@gmail.com

快速回复 返回顶部 返回列表