找回密码

查看: 1152|回复: 0

[喜剧] 圣诞前夜 The.Night.Before.2015.1080p.BluRay.x264-Replica 7.70GB

[复制链接]
蓝光币
2039
发表于 2020-12-12 09:16:26 | 显示全部楼层 |阅读模式


◎译  名 圣诞前夜/X-Mas/今夜玩到趴(台)/前一夜/圣诞节/昨夜
◎片  名 The Night Before
◎年  代 2015
◎产  地 美国
◎类  别 笑剧
◎语  言 英语
◎上映日期 2015-11-20(美国)
◎IMDb评分  6.4/10 from 64674 users
◎IMDb链接  https://www.imdb.com/title/tt3530002/
◎豆瓣评分 6.1/10 from 3282 users
◎豆瓣链接 https://movie.douban.com/subject/25827325/
◎片  长 101分钟
◎导  演 乔纳森·莱文 Jonathan Levine
◎编  剧 乔纳森·莱文 Jonathan Levine / 埃文·戈德堡 Evan Goldberg / 凯尔·亨特 Kyle Hunter / 艾瑞尔·沙福 Ariel Shaffir
◎主  演 约瑟夫·高登-莱维特 Joseph Gordon-Levitt
       塞斯·罗根 Seth Rogen
       安东尼·麦凯 Anthony Mackie
       吉莉恩·贝尔 Jillian Bell
       丽兹·卡潘 Lizzy Caplan
       迈克尔·珊农 Michael Shannon
       敏迪·卡灵 Mindy Kaling
       詹姆斯·弗兰科 James Franco
       坎耶·威斯特 Kanye West
       麦莉·赛勒斯 Miley Cyrus
       洛莱妮·图桑特 Lorraine Toussaint
       西奥多拉·伍利 Theodora Woolley
       海伦娜·约克 Heléne Yorke
       阿隆·希尔 Aaron Hill
       娜塔莉·奈普 Natalie Knepp
       巴朗·戴维斯 Baron Davis
       兰道尔·朴 Randall Park
       伊拉纳·格雷泽 Ilana Glazer
◎标  签 笑剧 | 美国 | 2015 | 圣诞 | 囧瑟夫 | 搞笑 | 黑色诙谐 | 长大
◎简  介


  塞斯·罗根和约瑟夫·高登-莱维特再次联手[抗癌的我]导演乔纳森·莱文,合作[圣诞节](Xmas,暂译)。影片报告三位发小在圣诞前夜,举行例行集会的故事。
  1. Video
  2. ID                                       : 1
  3. Format                                   : AVC
  4. Format/Info                              : Advanced Video Codec
  5. Format profile                           : [email protected]
  6. Format settings                          : CABAC / 5 Ref Frames
  7. Format settings, CABAC                   : Yes
  8. Format settings, Reference frames        : 5 frames
  9. Codec ID                                 : V_MPEG4/ISO/AVC
  10. Duration                                 : 1 h 41 min
  11. Bit rate                                 : 9 311 kb/s
  12. Width                                    : 1 920 pixels
  13. Height                                   : 808 pixels
  14. Display aspect ratio                     : 2.40:1
  15. Frame rate mode                          : Constant
  16. Frame rate                               : 23.976 (24000/1001/189150) FPS
  17. Color space                              : YUV
  18. Chroma subsampling                       : 4:2:0
  19. Bit depth                                : 8 bits
  20. Scan type                                : Progressive
  21. Bits/(Pixel*Frame)                       : 0.250
  22. Stream size                              : 6.43 GiB (84%)
  23. Writing library                          : x264 core 148 r2665 a01e339
  24. Encoding settings                        : cabac=1 / ref=5 / deblock=1:0:0 / analyse=0x3:0x113 / me=umh / subme=8 / psy=1 / psy_rd=1.00:0.00 / mixed_ref=1 / me_range=16 / chroma_me=1 / trellis=1 / 8x8dct=1 / cqm=0 / deadzone=21,11 / fast_pskip=0 / chroma_qp_offset=-2 / threads=24 / lookahead_threads=4 / sliced_threads=0 / nr=0 / decimate=1 / interlaced=0 / bluray_compat=0 / constrained_intra=0 / bframes=3 / b_pyramid=2 / b_adapt=2 / b_bias=0 / direct=3 / weightb=1 / open_gop=0 / weightp=2 / keyint=250 / keyint_min=23 / scenecut=40 / intra_refresh=0 / rc_lookahead=50 / rc=2pass / mbtree=1 / bitrate=9311 / ratetol=1.0 / qcomp=0.60 / qpmin=0 / qpmax=69 / qpstep=4 / cplxblur=20.0 / qblur=0.5 / ip_ratio=1.40 / aq=1:1.00
  25. Language                                 : English
  26. Default                                  : Yes
  27. Forced                                   : No

  28. Audio
  29. ID                                       : 2
  30. Format                                   : DTS
  31. Format/Info                              : Digital Theater Systems
  32. Codec ID                                 : A_DTS
  33. Duration                                 : 1 h 41 min
  34. Bit rate mode                            : Constant
  35. Bit rate                                 : 1 509 kb/s
  36. Channel(s)                               : 6 channels
  37. Channel layout                           : C L R Ls Rs LFE
  38. Sampling rate                            : 48.0 kHz
  39. Frame rate                               : 93.750 FPS (512 SPF)
  40. Bit depth                                : 24 bits
  41. Compression mode                         : Lossy
  42. Stream size                              : 1.07 GiB (14%)
  43. Language                                 : English
  44. Default                                  : Yes
  45. Forced                                   : No

  46. Text #1
  47. ID                                       : 3
  48. Format                                   : UTF-8
  49. Codec ID                                 : S_TEXT/UTF8
  50. Codec ID/Info                            : UTF-8 Plain Text
  51. Title                                    : English regular
  52. Default                                  : No
  53. Forced                                   : No

  54. Text #2
  55. ID                                       : 4
  56. Format                                   : UTF-8
  57. Codec ID                                 : S_TEXT/UTF8
  58. Codec ID/Info                            : UTF-8 Plain Text
  59. Title                                    : English sdh
  60. Default                                  : No
  61. Forced                                   : No

  62. Menu
  63. 00:00:00.000                             : en:00:00:00.000
  64. 00:05:23.490                             : en:00:05:23.490
  65. 00:12:33.294                             : en:00:12:33.294
  66. 00:18:38.159                             : en:00:18:38.159
  67. 00:25:18.851                             : en:00:25:18.851
  68. 00:31:53.829                             : en:00:31:53.829
  69. 00:40:33.973                             : en:00:40:33.973
  70. 00:47:16.208                             : en:00:47:16.208
  71. 00:54:30.851                             : en:00:54:30.851
  72. 01:01:08.290                             : en:01:01:08.290
  73. 01:06:12.594                             : en:01:06:12.594
  74. 01:12:10.952                             : en:01:12:10.952
  75. 01:18:05.055                             : en:01:18:05.055
  76. 01:23:56.823                             : en:01:23:56.823
  77. 01:29:40.834                             : en:01:29:40.834
  78. 01:34:53.605                             : en:01:34:53.605
复制代码



                                       
                                       

                                       
                                       
                                       




回复

使用道具 举报

懒得打字嘛,点击右侧快捷回复 【右侧内容,后台自定义】
您需要登录后才可以回帖 登录 | 立即加入

本版积分规则

Archiver| |网站地图

Copyright © 2024 Comsenz Inc. Powered by 蓝光电影网

本站内容由用户自主分享和转载自互联网,转载目的在于传递更多信息,并不代表本网赞同其观点和对其真实性负责。

如有侵权、违反国家法律政策行为,请联系我们,我们会第一时间及时清除和处理!

举报反馈邮箱:4k1080.com@gmail.com

快速回复 返回顶部 返回列表