找回密码

查看: 919|回复: 0

[动作] 生死豪情/火线勇气 Courage.Under.Fire.1996.1080p.BluRay.x264-CiNEFiLE 7.95GB

[复制链接]
蓝光币
2048
发表于 2019-6-16 18:40:39 | 显示全部楼层 |阅读模式


◎译  名 生死豪情 / 前方勇气
◎片  名 Courage Under Fire
◎年  代 1996
◎产  地 美国
◎类  别 行动 / 悬疑 / 战争
◎语  言 英语
◎上映日期 1996-07-12
◎IMDb评分  6.6/10 from 46900 users
◎IMDb链接  http://www.imdb.com/title/tt0115956
◎豆瓣评分 7.5/10 from 5192 users
◎豆瓣链接 https://movie.douban.com/subject/1301547/
◎片  长 117 分钟
◎导  演 Edward Zwick
◎编  剧 Patrick Sheane Duncan
◎主  演 丹泽尔·华盛顿 Denzel Washington
      梅格·瑞恩 Meg Ryan
      迈克尔·莫里亚蒂 Michael Moriarty
      马特·达蒙 Matt Damon
      西恩·奥斯汀 Sean Astin
      斯科特·格林 Scott Glenn

◎标  签 战争 | 美国 | 丹泽尔·华盛顿 | DenzelWashington | MegRyan | 剧情 | 美国电影 | 梅格·瑞恩
◎简  介  
  海湾战争中,坦克军队军官沙林(丹泽尔?华盛顿 Denzel Washington 饰)一次判定失误命令击毁了己军的坦克,令到好友鲍德温意外灭亡了。虽然军事法庭判他不需承当义务,但是他还是昼夜受着良知的煎熬,一向想找鲍德温的怙恃说明此事,却也一向没有勇气。
下属为了给沙林授勋,派他观察战争中一路机械师勇救兵士牺牲的事务。沙林观察中发现勇救兵士而勇敢牺牲的居然是卡伦(梅格?瑞安 Meg Ryan 饰)居然是个女人!但现场的几名流兵的口供自相冲突、缝隙百出。在沙林对其中一位流兵墨菲逼问后,墨菲居然自杀了。随着墨菲的自杀,事务的真相渐渐浮出水面……
  1. Video
  2. ID                                       : 1
  3. Format                                   : AVC
  4. Format/Info                              : Advanced Video Codec
  5. Format profile                           : [email protected]
  6. Format settings                          : CABAC / 5 Ref Frames
  7. Format settings, CABAC                   : Yes
  8. Format settings, ReFrames                : 5 frames
  9. Codec ID                                 : V_MPEG4/ISO/AVC
  10. Duration                                 : 1 h 56 min
  11. Bit rate                                 : 9 125 kb/s
  12. Width                                    : 1 920 pixels
  13. Height                                   : 1 040 pixels
  14. Display aspect ratio                     : 1.85:1
  15. Frame rate mode                          : Constant
  16. Frame rate                               : 23.976 FPS
  17. Color space                              : YUV
  18. Chroma subsampling                       : 4:2:0
  19. Bit depth                                : 8 bits
  20. Scan type                                : Progressive
  21. Bits/(Pixel*Frame)                       : 0.191
  22. Stream size                              : 7.27 GiB (91%)
  23. Title                                    : Courage.Under.Fire
  24. Writing library                          : x264 core 65 r998M 6768543
  25. Encoding settings                        : cabac=1 / ref=5 / deblock=1:0:0 / analyse=0x3:0x133 / me=umh / subme=7 / psy_rd=1.0:0.0 / mixed_ref=1 / me_range=12 / chroma_me=1 / trellis=1 / 8x8dct=1 / cqm=0 / deadzone=21,11 / chroma_qp_offset=-2 / threads=6 / nr=0 / decimate=1 / mbaff=0 / bframes=3 / b_pyramid=1 / b_adapt=1 / b_bias=0 / direct=3 / wpredb=1 / keyint=240 / keyint_min=24 / scenecut=40(pre) / rc=2pass / bitrate=9125 / ratetol=1.0 / qcomp=0.60 / qpmin=10 / qpmax=51 / qpstep=4 / cplxblur=20.0 / qblur=0.5 / ip_ratio=1.40 / pb_ratio=1.30 / aq=1:1.00
  26. Language                                 : English
  27. Default                                  : Yes
  28. Forced                                   : No
  29. Audio
  30. ID                                       : 2
  31. Format                                   : AC-3
  32. Format/Info                              : Audio Coding 3
  33. Codec ID                                 : A_AC3
  34. Duration                                 : 1 h 56 min
  35. Bit rate mode                            : Constant
  36. Bit rate                                 : 640 kb/s
  37. Channel(s)                               : 6 channels
  38. Channel positions                        : Front: L C R, Side: L R, LFE
  39. Sampling rate                            : 48.0 kHz
  40. Frame rate                               : 31.250 FPS (1536 SPF)
  41. Bit depth                                : 16 bits
  42. Compression mode                         : Lossy
  43. Stream size                              : 533 MiB (7%)
  44. Title                                    : English
  45. Language                                 : English
  46. Service kind                             : Complete Main
  47. Default                                  : Yes
  48. Forced                                   : No
  49. Text
  50. ID                                       : 3
  51. Format                                   : UTF-8
  52. Codec ID                                 : S_TEXT/UTF8
  53. Codec ID/Info                            : UTF-8 Plain Text
  54. Title                                    : English
  55. Language                                 : English
  56. Default                                  : Yes
  57. Forced                                   : No
  58. Menu
  59. 00:00:00.000                             : en:00:00:00.000
  60. 00:02:42.496                             : en:00:02:42.496
  61. 00:07:26.196                             : en:00:07:26.196
  62. 00:12:51.604                             : en:00:12:51.604
  63. 00:20:45.161                             : en:00:20:45.161
  64. 00:24:05.486                             : en:00:24:05.486
  65. 00:28:42.471                             : en:00:28:42.471
  66. 00:31:24.299                             : en:00:31:24.299
  67. 00:36:46.913                             : en:00:36:46.913
  68. 00:40:29.302                             : en:00:40:29.302
  69. 00:45:11.709                             : en:00:45:11.709
  70. 00:48:14.725                             : en:00:48:14.725
  71. 00:50:30.861                             : en:00:50:30.861
  72. 00:55:21.235                             : en:00:55:21.235
  73. 00:56:44.568                             : en:00:56:44.568
  74. 01:05:23.211                             : en:01:05:23.211
  75. 01:07:14.989                             : en:01:07:14.989
  76. 01:10:28.850                             : en:01:10:28.850
  77. 01:13:36.996                             : en:01:13:36.996
  78. 01:17:12.586                             : en:01:17:12.586
  79. 01:20:38.500                             : en:01:20:38.500
  80. 01:22:26.150                             : en:01:22:26.150
  81. 01:26:01.573                             : en:01:26:01.573
  82. 01:37:56.996                             : en:01:37:56.996
  83. 01:43:13.813                             : en:01:43:13.813
  84. 01:47:38.452                             : en:01:47:38.452
  85. 01:49:08.751                             : en:01:49:08.751
  86. 01:51:24.678                             : en:01:51:24.678
  87. 01:56:27.731                             : en:01:56:27.731
复制代码









                                       
                                       

                                       
                                       
                                       




回复

使用道具 举报

懒得打字嘛,点击右侧快捷回复 【右侧内容,后台自定义】
您需要登录后才可以回帖 登录 | 立即加入

本版积分规则

Archiver| |网站地图

Copyright © 2024 Comsenz Inc. Powered by 蓝光电影网

本站内容由用户自主分享和转载自互联网,转载目的在于传递更多信息,并不代表本网赞同其观点和对其真实性负责。

如有侵权、违反国家法律政策行为,请联系我们,我们会第一时间及时清除和处理!

举报反馈邮箱:4k1080.com@gmail.com

快速回复 返回顶部 返回列表