找回密码

查看: 1427|回复: 0

[剧情] 美国女人 American.Woman.2018.1080p.BluRay.REMUX.AVC.DTS-HD.MA.5.1-FGT 19.03GB

[复制链接]
蓝光币
2039
发表于 2019-10-16 05:31:19 | 显示全部楼层 |阅读模式


◎译  名 美国女人 / The Burning Woman / 熄灭的女人
◎片  名 American Woman
◎年  代 2018
◎产  地 英国 / 美国
◎类  别 剧情
◎语  言 英语
◎上映日期 2018-09-09(多伦多国际电影节) / 2019-06-14(美国)
◎IMDb评分  6.4/10 from 310 users
◎IMDb链接  http://www.imdb.com/title/tt4465572
◎豆瓣评分 0/10 from 0 users
◎豆瓣链接 https://movie.douban.com/subject/26331118/
◎片  长 111分钟
◎导  演 杰克·斯科特 Jake Scott
◎编  剧 布拉德·英格尔斯比 Brad Ingelsby
◎主  演 西耶娜·米勒 Sienna Miller
       亚伦·保尔 Aaron Paul
       克里斯蒂娜·亨德里克斯 Christina Hendricks
       威尔·萨索 Will Sasso
       埃米·马迪根 Amy Madigan
       斯凯·费雷拉 Sky Ferreira
       亚历克斯·诺伊施泰特 Alex Neustaedter
       梅肯·布莱尔 Macon Blair
       玛吉·卡斯特 Maggie Castle
       帕特·希利 Pat Healy
       凯莉·戈尔登 Kelly Golden
       莱克西·罗斯 Lexie Roth
       吉祥恩·玛瑞娜·戈登 Gillian Mariner Gordon
       托马斯·马里亚诺 Thomas Mariano
       亚当·W·梅耶森 Adam W. Mayerson
       马克·隆德 Mark Lund
       Rachel Singer
       Christopher Lee Herod
       Kentucker Audley
       Maggie Budzyna

◎标  签 美国电影 | 美国 | 剧情 | 西耶娜·米勒 | 惊悚 | 悬疑 | 女性 | 2019
◎简  介  
  影片报告一位生活在美国蓝领聚集区的女性,在女儿意外失落后,一边抚养尚在襁褓中的外孙,一边探访事务真相。
  1. Video
  2. ID                                       : 1
  3. Format                                   : AVC
  4. Format/Info                              : Advanced Video Codec
  5. Format profile                           : [email protected]
  6. Format settings                          : CABAC / 4 Ref Frames
  7. Format settings, CABAC                   : Yes
  8. Format settings, Reference frames        : 4 frames
  9. Codec ID                                 : V_MPEG4/ISO/AVC
  10. Duration                                 : 1 h 51 min
  11. Bit rate mode                            : Constant
  12. Bit rate                                 : 22.0 Mb/s
  13. Width                                    : 1 920 pixels
  14. Height                                   : 1 080 pixels
  15. Display aspect ratio                     : 16:9
  16. Frame rate mode                          : Constant
  17. Frame rate                               : 23.976 (24000/1001) FPS
  18. Standard                                 : NTSC
  19. Color space                              : YUV
  20. Chroma subsampling                       : 4:2:0
  21. Bit depth                                : 8 bits
  22. Scan type                                : Progressive
  23. Bits/(Pixel*Frame)                       : 0.443
  24. Stream size                              : 16.5 GiB (87%)
  25. Title                                    : American.Woman.2018.1080p.BluRay.REMUX.AVC.DTS-HD.MA.5.1-FGT
  26. Language                                 : English
  27. Default                                  : No
  28. Forced                                   : No
  29. Color range                              : Limited
  30. Color primaries                          : BT.709
  31. Transfer characteristics                 : BT.709
  32. Matrix coefficients                      : BT.709
  33. Audio #1
  34. ID                                       : 2
  35. Format                                   : DTS XLL
  36. Format/Info                              : Digital Theater Systems
  37. Commercial name                          : DTS-HD Master Audio
  38. Codec ID                                 : A_DTS
  39. Duration                                 : 1 h 51 min
  40. Bit rate mode                            : Variable
  41. Bit rate                                 : 1 726 kb/s
  42. Channel(s)                               : 6 channels
  43. Channel layout                           : C L R Ls Rs LFE
  44. Sampling rate                            : 48.0 kHz
  45. Frame rate                               : 93.750 FPS (512 SPF)
  46. Bit depth                                : 16 bits
  47. Compression mode                         : Lossless
  48. Stream size                              : 1.35 GiB (7%)
  49. Title                                    : American.Woman.2018.1080p.BluRay.REMUX.AVC.DTS-HD.MA.5.1-FGT
  50. Language                                 : English
  51. Default                                  : Yes
  52. Forced                                   : No
  53. Audio #2
  54. ID                                       : 3
  55. Format                                   : PCM
  56. Format settings                          : Little / Signed
  57. Codec ID                                 : A_PCM/INT/LIT
  58. Duration                                 : 1 h 51 min
  59. Bit rate mode                            : Constant
  60. Bit rate                                 : 1 536 kb/s
  61. Channel(s)                               : 2 channels
  62. Sampling rate                            : 48.0 kHz
  63. Frame rate                               : 30.000 FPS (1600 SPF)
  64. Bit depth                                : 16 bits
  65. Stream size                              : 1.20 GiB (6%)
  66. Title                                    : American.Woman.2018.1080p.BluRay.REMUX.AVC.DTS-HD.MA.5.1-FGT
  67. Language                                 : English
  68. Default                                  : No
  69. Forced                                   : No
  70. Text
  71. ID                                       : 4
  72. Format                                   : UTF-8
  73. Codec ID                                 : S_TEXT/UTF8
  74. Codec ID/Info                            : UTF-8 Plain Text
  75. Duration                                 : 1 h 45 min
  76. Bit rate                                 : 59 b/s
  77. Count of elements                        : 1571
  78. Stream size                              : 46.0 KiB (0%)
  79. Title                                    : English-SRT
  80. Language                                 : English
  81. Default                                  : Yes
  82. Forced                                   : No
  83. Menu
  84. 00:00:00.000                             : en:Chapter 01
  85. 00:19:24.663                             : en:Chapter 02
  86. 00:42:27.503                             : en:Chapter 03
  87. 01:09:44.638                             : en:Chapter 04
  88. 01:28:37.186                             : en:Chapter 05
  89. 01:47:01.623                             : en:Chapter 06
复制代码






                                       
                                       

                                       
                                       
                                       




回复

使用道具 举报

懒得打字嘛,点击右侧快捷回复 【右侧内容,后台自定义】
您需要登录后才可以回帖 登录 | 立即加入

本版积分规则

Archiver| |网站地图

Copyright © 2024 Comsenz Inc. Powered by 蓝光电影网

本站内容由用户自主分享和转载自互联网,转载目的在于传递更多信息,并不代表本网赞同其观点和对其真实性负责。

如有侵权、违反国家法律政策行为,请联系我们,我们会第一时间及时清除和处理!

举报反馈邮箱:4k1080.com@gmail.com

快速回复 返回顶部 返回列表