找回密码

查看: 1115|回复: 0

[喜剧] 银色圣诞/白色圣诞 White.Christmas.1954.1080p.BluRay.x264.DTS-FGT 9.65GB

[复制链接]
蓝光币
2039
发表于 2020-12-12 08:41:47 | 显示全部楼层 |阅读模式


◎译  名 银色圣诞/红色圣诞/红色圣诞节
◎片  名 White Christmas
◎年  代 1954
◎产  地 美国
◎类  别 笑剧 / 恋爱 / 歌舞
◎语  言 英语
◎上映日期 1954-10-14
◎IMDb评分  7.6/10 from 32047 users
◎IMDb链接  https://www.imdb.com/title/tt0047673/
◎豆瓣评分 7.6/10 from 374 users
◎豆瓣链接 https://movie.douban.com/subject/1305262/
◎片  长 120 分钟
◎导  演 迈克尔·柯蒂兹 Michael Curtiz
◎编  剧 梅尔文·弗兰克 Melvin Frank / 诺曼·克拉斯娜 Norman Krasna
◎主  演 平·克劳斯贝 Bing Crosby
       丹尼·凯耶 Danny Kaye
       罗丝玛丽·克鲁尼 Rosemary Clooney
       玛丽·威克斯 Mary Wickes
       迪恩·贾格尔 Dean Jagger
       薇拉-埃伦 Vera-Ellen
       Anne Whitfield
◎标  签 美国 | 歌舞 | 音乐 | 恋爱 | 1954 | 美国电影 | 歌舞片 | 1950s
◎简  介


  故事发生在第二次天下大战竣事以后,在火线奋勇杀敌保家卫国的老兵鲍勃(平·克劳斯贝 Bing Crosby 饰)和菲尔(丹尼·凯耶 Danny Kaye 饰)重新回归了一般次序之下的社会,前途一片怅惘。终极,两人决议将命运赌在正在繁华成长的歌舞剧奇迹上,走下疆场,走上舞台。
  
  一次偶然中,鲍勃和菲尔诠释了美丽的姐妹花贝蒂(罗丝玛丽·克鲁尼 Rosemary Clooney 饰)和朱迪(薇拉·艾伦 Vera-Ellen 饰),四人很快成为好友。一天,贝蒂和朱迪筹算在圣诞节之际前往佛蒙特州加入一场表演,鲍勃和菲尔见义勇为的成为了两人的护花使者,一行人踏上旅途。在途中,四人固然碰撞出了豪情的火花。
◎获奖情况
  第27届奥斯卡金像奖 ?(1955)
  最好原创歌曲(提名) 艾文·伯林
  1. Video
  2. ID                                       : 1
  3. Format                                   : AVC
  4. Format/Info                              : Advanced Video Codec
  5. Format profile                           : [email protected]
  6. Format settings                          : CABAC / 4 Ref Frames
  7. Format settings, CABAC                   : Yes
  8. Format settings, Reference frames        : 4 frames
  9. Codec ID                                 : V_MPEG4/ISO/AVC
  10. Duration                                 : 2 h 0 min
  11. Bit rate                                 : 10 000 kb/s
  12. Width                                    : 1 920 pixels
  13. Height                                   : 1 080 pixels
  14. Display aspect ratio                     : 16:9
  15. Frame rate mode                          : Constant
  16. Frame rate                               : 23.976 (24000/1001/189150) FPS
  17. Color space                              : YUV
  18. Chroma subsampling                       : 4:2:0
  19. Bit depth                                : 8 bits
  20. Scan type                                : Progressive
  21. Bits/(Pixel*Frame)                       : 0.201
  22. Stream size                              : 8.19 GiB (85%)
  23. Writing library                          : x264 core 142 r2479 dd79a61
  24. Encoding settings                        : cabac=1 / ref=3 / deblock=1:0:0 / analyse=0x3:0x113 / me=hex / subme=7 / psy=1 / psy_rd=1.00:0.00 / mixed_ref=1 / me_range=16 / chroma_me=1 / trellis=1 / 8x8dct=1 / cqm=0 / deadzone=21,11 / fast_pskip=1 / chroma_qp_offset=-2 / threads=12 / lookahead_threads=2 / sliced_threads=0 / nr=0 / decimate=1 / interlaced=0 / bluray_compat=0 / constrained_intra=0 / bframes=3 / b_pyramid=2 / b_adapt=1 / b_bias=0 / direct=1 / weightb=1 / open_gop=0 / weightp=2 / keyint=240 / keyint_min=24 / scenecut=40 / intra_refresh=0 / rc_lookahead=40 / rc=abr / mbtree=1 / bitrate=10000 / ratetol=1.0 / qcomp=0.60 / qpmin=0 / qpmax=69 / qpstep=4 / vbv_maxrate=62500 / vbv_bufsize=78125 / nal_hrd=none / filler=0 / ip_ratio=1.40 / aq=1:1.00
  25. Default                                  : Yes
  26. Forced                                   : No
  27. Color range                              : Limited
  28. Color primaries                          : BT.709
  29. Transfer characteristics                 : BT.709
  30. Matrix coefficients                      : BT.709

  31. Audio
  32. ID                                       : 2
  33. Format                                   : DTS
  34. Format/Info                              : Digital Theater Systems
  35. Codec ID                                 : A_DTS
  36. Duration                                 : 2 h 0 min
  37. Bit rate mode                            : Constant
  38. Bit rate                                 : 1 509 kb/s
  39. Channel(s)                               : 6 channels
  40. Channel layout                           : C L R Ls Rs LFE
  41. Sampling rate                            : 48.0 kHz
  42. Frame rate                               : 93.750 FPS (512 SPF)
  43. Bit depth                                : 24 bits
  44. Compression mode                         : Lossy
  45. Delay relative to video                  : -83 ms
  46. Stream size                              : 1.27 GiB (13%)
  47. Language                                 : English
  48. Default                                  : Yes
  49. Forced                                   : No

  50. Menu
  51. 00:00:00.000                             : :00:00:00.000
  52. 00:08:54.451                             : :00:08:54.367
  53. 00:14:18.775                             : :00:14:18.691
  54. 00:27:00.536                             : :00:27:00.452
  55. 00:31:41.942                             : :00:31:41.817
  56. 00:38:26.638                             : :00:38:26.471
  57. 00:44:23.578                             : :00:44:23.494
  58. 00:49:16.036                             : :00:49:15.953
  59. 00:53:49.810                             : :00:53:49.685
  60. 01:00:59.823                             : :01:00:59.656
  61. 01:11:46.469                             : :01:11:46.344
  62. 01:15:38.117                             : :01:15:37.992
  63. 01:21:10.199                             : :01:21:10.115
  64. 01:31:25.647                             : :01:31:25.480
  65. 01:35:22.216                             : :01:35:22.133
  66. 01:41:03.099                             : :01:41:02.974
  67. 01:45:52.513                             : :01:45:52.346
  68. 01:52:14.895                             : :01:52:14.728
  69. 01:55:13.323                             : :01:55:13.198
复制代码



                                       
                                       

                                       
                                       
                                       




回复

使用道具 举报

懒得打字嘛,点击右侧快捷回复 【右侧内容,后台自定义】
您需要登录后才可以回帖 登录 | 立即加入

本版积分规则

Archiver| |网站地图

Copyright © 2024 Comsenz Inc. Powered by 蓝光电影网

本站内容由用户自主分享和转载自互联网,转载目的在于传递更多信息,并不代表本网赞同其观点和对其真实性负责。

如有侵权、违反国家法律政策行为,请联系我们,我们会第一时间及时清除和处理!

举报反馈邮箱:4k1080.com@gmail.com

快速回复 返回顶部 返回列表