找回密码

查看: 1610|回复: 0

[剧情] 哥 Poem.1972.DC.JAPANESE.1080p.BluRay.REMUX.AVC.LPCM.1.0-FGT 21.27GB

[复制链接]
蓝光币
2039
发表于 2019-10-15 23:24:11 | 显示全部楼层 |阅读模式


◎译  名 Poem / Uta / うた
◎片  名 哥
◎年  代 1972
◎产  地 日本
◎类  别 剧情 / 情色
◎语  言 日语
◎上映日期 1972-06-17
◎IMDb评分  6.9/10 from 135 users
◎IMDb链接  https://www.imdb.com/title/tt1033501
◎豆瓣评分 7.3/10 from 88 users
◎豆瓣链接 https://movie.douban.com/subject/1771045/
◎片  长 119分钟
◎导  演 実相寺昭雄
◎编  剧 石堂淑朗
◎主  演 条田三郎
       八并映子
       田村亮

◎标  签 日本 | 実相寺昭雄 | 情色 | 日本电影 | 哥 | 实相寺昭雄 | 伦理 | 1970s
◎简  介  
  As a faithful young houseboy fully devotes himself to his spiritual duty, his teacher plans turning over his grandfather's mountain property to realtors for profit.
  1. Video
  2. ID                                       : 1
  3. Format                                   : AVC
  4. Format/Info                              : Advanced Video Codec
  5. Format profile                           : [email protected]
  6. Format settings                          : CABAC / 3 Ref Frames
  7. Format settings, CABAC                   : Yes
  8. Format settings, Reference frames        : 3 frames
  9. Codec ID                                 : V_MPEG4/ISO/AVC
  10. Duration                                 : 2 h 16 min
  11. Bit rate mode                            : Variable
  12. Bit rate                                 : 20.0 Mb/s
  13. Maximum bit rate                         : 36.0 Mb/s
  14. Width                                    : 1 920 pixels
  15. Height                                   : 1 080 pixels
  16. Display aspect ratio                     : 16:9
  17. Frame rate mode                          : Constant
  18. Frame rate                               : 23.976 (24000/1001) FPS
  19. Color space                              : YUV
  20. Chroma subsampling                       : 4:2:0
  21. Bit depth                                : 8 bits
  22. Scan type                                : Progressive
  23. Bits/(Pixel*Frame)                       : 0.402
  24. Stream size                              : 19.1 GiB (90%)
  25. Title                                    : Poem.1972.DC.JAPANESE.1080p.BluRay.REMUX.AVC.LPCM.1.0-FGT
  26. Writing library                          : x264 core 157 r2935 545de2f
  27. Encoding settings                        : cabac=1 / ref=4 / deblock=1:0:0 / analyse=0x3:0x133 / me=umh / subme=10 / psy=1 / psy_rd=1.00:0.00 / mixed_ref=1 / me_range=24 / chroma_me=1 / trellis=2 / 8x8dct=1 / cqm=0 / deadzone=21,11 / fast_pskip=1 / chroma_qp_offset=-2 / threads=12 / lookahead_threads=1 / sliced_threads=0 / slices=4 / nr=0 / decimate=1 / interlaced=0 / bluray_compat=1 / constrained_intra=0 / bframes=3 / b_pyramid=1 / b_adapt=2 / b_bias=0 / direct=3 / weightb=1 / open_gop=1 / weightp=1 / keyint=24 / keyint_min=1 / scenecut=40 / intra_refresh=0 / rc_lookahead=24 / rc=2pass / mbtree=1 / bitrate=20000 / ratetol=0.1 / qcomp=0.90 / qpmin=1 / qpmax=69 / qpstep=4 / cplxblur=20.0 / qblur=0.5 / vbv_maxrate=36000 / vbv_bufsize=30000 / nal_hrd=vbr / filler=0 / ip_ratio=1.40 / aq=1:1.00
  28. Language                                 : English
  29. Default                                  : No
  30. Forced                                   : No
  31. Color range                              : Limited
  32. Color primaries                          : BT.709
  33. Transfer characteristics                 : BT.709
  34. Matrix coefficients                      : BT.709
  35. Audio #1
  36. ID                                       : 2
  37. Format                                   : PCM
  38. Format settings                          : Little / Signed
  39. Codec ID                                 : A_PCM/INT/LIT
  40. Duration                                 : 2 h 16 min
  41. Bit rate mode                            : Constant
  42. Bit rate                                 : 1 152 kb/s
  43. Sampling rate                            : 48.0 kHz
  44. Frame rate                               : 30.000 FPS (1600 SPF)
  45. Bit depth                                : 24 bits
  46. Stream size                              : 1.10 GiB (5%)
  47. Title                                    : Poem.1972.DC.JAPANESE.1080p.BluRay.REMUX.AVC.LPCM.1.0-FGT
  48. Language                                 : Japanese
  49. Default                                  : Yes
  50. Forced                                   : No
  51. Audio #2
  52. ID                                       : 3
  53. Format                                   : PCM
  54. Format settings                          : Little / Signed
  55. Codec ID                                 : A_PCM/INT/LIT
  56. Duration                                 : 2 h 16 min
  57. Bit rate mode                            : Constant
  58. Bit rate                                 : 1 152 kb/s
  59. Sampling rate                            : 48.0 kHz
  60. Frame rate                               : 30.000 FPS (1600 SPF)
  61. Bit depth                                : 24 bits
  62. Stream size                              : 1.10 GiB (5%)
  63. Title                                    : Poem.1972.DC.JAPANESE.1080p.BluRay.REMUX.AVC.LPCM.1.0-FGT
  64. Language                                 : English
  65. Default                                  : No
  66. Forced                                   : No
  67. Text
  68. ID                                       : 4
  69. Format                                   : PGS
  70. Muxing mode                              : zlib
  71. Codec ID                                 : S_HDMV/PGS
  72. Codec ID/Info                            : Picture based subtitle format used on BDs/HD-DVDs
  73. Duration                                 : 2 h 16 min
  74. Bit rate                                 : 13.8 kb/s
  75. Count of elements                        : 1506
  76. Stream size                              : 13.5 MiB (0%)
  77. Title                                    : English-PGS
  78. Language                                 : English
  79. Default                                  : Yes
  80. Forced                                   : No
  81. Menu
  82. 00:00:00.000                             : en:Chapter 00
  83. 00:11:09.168                             : en:Chapter 01
  84. 00:22:49.242                             : en:Chapter 02
  85. 00:33:45.732                             : en:Chapter 03
  86. 00:42:53.153                             : en:Chapter 04
  87. 00:57:34.117                             : en:Chapter 05
  88. 01:09:11.188                             : en:Chapter 06
  89. 01:20:58.436                             : en:Chapter 07
  90. 01:31:39.869                             : en:Chapter 08
  91. 01:46:35.722                             : en:Chapter 09
  92. 01:55:40.683                             : en:Chapter 10
  93. 02:07:54.458                             : en:Chapter 11
复制代码






                                       
                                       

                                       
                                       
                                       




回复

使用道具 举报

懒得打字嘛,点击右侧快捷回复 【右侧内容,后台自定义】
您需要登录后才可以回帖 登录 | 立即加入

本版积分规则

Archiver| |网站地图

Copyright © 2024 Comsenz Inc. Powered by 蓝光电影网

本站内容由用户自主分享和转载自互联网,转载目的在于传递更多信息,并不代表本网赞同其观点和对其真实性负责。

如有侵权、违反国家法律政策行为,请联系我们,我们会第一时间及时清除和处理!

举报反馈邮箱:4k1080.com@gmail.com

快速回复 返回顶部 返回列表