找回密码

查看: 1486|回复: 1

[动作] 捍卫机密/约翰尼记忆术 Johnny.Mnemonic.1995.1080p.BluRay.x264-MOOVEE 6.55GB

[复制链接]
蓝光币
2048
发表于 2019-6-14 10:52:48 | 显示全部楼层 |阅读模式


◎译  名 保卫机密 / 约翰尼记忆术 / 很是使命 / 很是特务
◎片  名 Johnny Mnemonic
◎年  代 1995
◎产  地 加拿大 / 美国
◎类  别 行动 / 科幻
◎语  言 英语 / 日语
◎上映日期 1995-04-15
◎IMDb评分  5.6/10 from 62409 users
◎IMDb链接  http://www.imdb.com/title/tt0113481
◎豆瓣评分 6.1/10 from 1609 users
◎豆瓣链接 https://movie.douban.com/subject/1298111/
◎片  长 Japan: 107 分钟(video version)
◎导  演 Robert Longo
◎编  剧 William Gibson
◎主  演 基努·李维斯 Keanu Reeves
      戴安· 梅尔 Dina Meyer
      北野武 Takeshi Kitano

◎标  签 科幻 | 美国 | KeanuReeves | 行动 | 北野武 | 1995 | 美国电影 | 基鲁·李维斯
◎简  介  
  公元2021年,材料除了透过电脑输送外,还可操纵人脑运输。专业运输员尊尼为了输送更多材料,不惜洗去自己的记忆。一次使命中,尊尼被客户输入过量材料,若他不在二十小时内找到输出密码,他便会倒毙。另一方面,日本团体为了夺取他脑内的材料,也对他展开一场大追杀。
  1. Video
  2. ID                                       : 1
  3. Format                                   : AVC
  4. Format/Info                              : Advanced Video Codec
  5. Format profile                           : [email protected]
  6. Format settings, CABAC                   : Yes
  7. Format settings, ReFrames                : 4 frames
  8. Muxing mode                              : Header stripping
  9. Codec ID                                 : V_MPEG4/ISO/AVC
  10. Duration                                 : 1 h 36 min
  11. Bit rate                                 : 8 196 kb/s
  12. Width                                    : 1 920 pixels
  13. Height                                   : 1 040 pixels
  14. Display aspect ratio                     : 1.85:1
  15. Frame rate mode                          : Constant
  16. Frame rate                               : 23.976 (24000/1001) FPS
  17. Color space                              : YUV
  18. Chroma subsampling                       : 4:2:0
  19. Bit depth                                : 8 bits
  20. Scan type                                : Progressive
  21. Bits/(Pixel*Frame)                       : 0.171
  22. Stream size                              : 5.40 GiB (82%)
  23. Writing library                          : x264 core 115 r1995 c1e60b9
  24. Encoding settings                        : cabac=1 / ref=4 / deblock=1:0:0 / analyse=0x3:0x133 / me=umh / subme=7 / psy=1 / psy_rd=1.00:0.00 / mixed_ref=1 / me_range=16 / chroma_me=1 / trellis=1 / 8x8dct=1 / cqm=0 / deadzone=21,11 / fast_pskip=0 / chroma_qp_offset=-2 / threads=18 / sliced_threads=0 / nr=0 / decimate=1 / interlaced=0 / bluray_compat=0 / constrained_intra=0 / bframes=3 / b_pyramid=2 / b_adapt=1 / b_bias=0 / direct=1 / weightb=1 / open_gop=0 / weightp=2 / keyint=250 / keyint_min=23 / scenecut=40 / intra_refresh=0 / rc_lookahead=40 / rc=2pass / mbtree=1 / bitrate=8196 / ratetol=1.0 / qcomp=0.60 / qpmin=0 / qpmax=69 / qpstep=4 / cplxblur=20.0 / qblur=0.5 / ip_ratio=1.40 / aq=1:1.00
  25. Language                                 : English
  26. Default                                  : Yes
  27. Forced                                   : No
  28. Audio
  29. ID                                       : 2
  30. Format                                   : DTS
  31. Format/Info                              : Digital Theater Systems
  32. Mode                                     : 16
  33. Format settings, Endianness              : Big
  34. Muxing mode                              : Header stripping
  35. Codec ID                                 : A_DTS
  36. Duration                                 : 1 h 36 min
  37. Bit rate mode                            : Constant
  38. Bit rate                                 : 1 509 kb/s
  39. Channel(s)                               : 6 channels
  40. Channel positions                        : Front: L C R, Side: L R, LFE
  41. Sampling rate                            : 48.0 kHz
  42. Frame rate                               : 93.750 FPS (512 spf)
  43. Bit depth                                : 24 bits
  44. Compression mode                         : Lossy
  45. Stream size                              : 1.02 GiB (16%)
  46. Default                                  : Yes
  47. Forced                                   : No
  48. Text
  49. ID                                       : 3
  50. Format                                   : UTF-8
  51. Codec ID                                 : S_TEXT/UTF8
  52. Codec ID/Info                            : UTF-8 Plain Text
  53. Title                                    : English SHD
  54. Language                                 : English
  55. Default                                  : No
  56. Forced                                   : No
复制代码









                                       
                                       

                                       
                                       
                                       




回复

使用道具 举报

蓝光币
299
发表于 2022-11-3 17:56:10 | 显示全部楼层
这个也不是日本版的哦,是97分钟的,不是107分钟
回复

使用道具 举报

懒得打字嘛,点击右侧快捷回复 【右侧内容,后台自定义】
您需要登录后才可以回帖 登录 | 立即加入

本版积分规则

Archiver| |网站地图

Copyright © 2024 Comsenz Inc. Powered by 蓝光电影网

本站内容由用户自主分享和转载自互联网,转载目的在于传递更多信息,并不代表本网赞同其观点和对其真实性负责。

如有侵权、违反国家法律政策行为,请联系我们,我们会第一时间及时清除和处理!

举报反馈邮箱:4k1080.com@gmail.com

快速回复 返回顶部 返回列表