找回密码

查看: 2827|回复: 1

[动作] 再生侠/闪灵悍将 Spawn.1997.DC.1080p.BluRay.x264-HD4U 7.65GB

[复制链接]
蓝光币
2048
发表于 2019-6-14 10:42:40 | 显示全部楼层 |阅读模式


◎译  名 再生侠 / 闪灵悍将
◎片  名 Spawn
◎年  代 1997
◎产  地 美国
◎类  别 行动 / 可骇
◎语  言 英语
◎上映日期 1997-08-01(美国)
◎IMDb评分  5.2/10 from 60147 users
◎IMDb链接  http://www.imdb.com/title/tt0120177
◎豆瓣评分 6.1/10 from 4097 users
◎豆瓣链接 https://movie.douban.com/subject/1304154/
◎片  长 96分钟
◎导  演 马可·A·Z·迪普 Mark A.Z. Dippé
◎编  剧 马可·A·Z·迪普 Mark A.Z. Dippé / 艾伦·B·罗伊 Alan B. McElroy / 托德·麦克法兰 Todd McFarlane
◎主  演 迈克尔·加·怀特 Michael Jai White
      约翰·雷吉扎莫 John Leguizamo
      马丁·辛 Martin Sheen
      特里萨·兰德尔 Theresa Randle
      尼科尔·威廉森 Nicol Williamson
      D·B·斯威尼 D.B. Sweeney
      美琳达·克拉克 Melinda Clarke
      米克·休斯 Miko Hughes
      迈克尔·帕帕约翰 Michael Papajohn
      弗兰克·维尔克 Frank Welker
      小约翰·科思伦 John Cothran Jr.
      Sydni Beaudoin
      Robia LaMorte
      Marc Robinson

◎标  签 科幻 | 漫画改编 | 美国 | 行动 | 魔幻 | 美国电影 | 1997 | 暴力
◎简  介  
  在人世之外的天堂与天堂之战连绵不停,双方都在为自己争取强力的战士。中情局奸细西蒙斯(迈克尔·加·怀特 Michael Jai White 饰)厌倦了杀戮的使命,向下属威恩(马丁·辛 Martin Sheen 饰)提出退出,岂料却执政鲜履利用命时被威恩害死。坠入天堂的西蒙斯与恶魔马里波吉亚告竣协议,赞成为它率领天堂军队来换得再生报仇的机遇。被恶魔雪藏五年的西蒙斯再生回到人世,以再生侠之名示人,并在恶魔喽啰——小丑的引领下向威恩复仇。此时研讨生化兵器着魔的威恩试图统治天下,而他的灭亡会激发全球堕入生化灾难。为了复仇的西蒙斯能置全人类的安危于掉臂么?
  1. Video
  2. ID                                       : 1
  3. Format                                   : AVC
  4. Format/Info                              : Advanced Video Codec
  5. Format profile                           : [email protected]
  6. Format settings, CABAC                   : Yes
  7. Format settings, ReFrames                : 4 frames
  8. Codec ID                                 : V_MPEG4/ISO/AVC
  9. Duration                                 : 1 h 38 min
  10. Bit rate                                 : 9 602 kb/s
  11. Width                                    : 1 920 pixels
  12. Height                                   : 1 080 pixels
  13. Display aspect ratio                     : 16:9
  14. Frame rate mode                          : Constant
  15. Frame rate                               : 23.976 FPS
  16. Color space                              : YUV
  17. Chroma subsampling                       : 4:2:0
  18. Bit depth                                : 8 bits
  19. Scan type                                : Progressive
  20. Bits/(Pixel*Frame)                       : 0.193
  21. Stream size                              : 6.46 GiB (84%)
  22. Writing library                          : x264 core 125 r2200 999b753
  23. Encoding settings                        : cabac=1 / ref=4 / deblock=1:0:0 / analyse=0x3:0x133 / me=umh / subme=7 / psy=1 / psy_rd=1.00:0.00 / mixed_ref=1 / me_range=16 / chroma_me=1 / trellis=1 / 8x8dct=1 / cqm=0 / deadzone=21,11 / fast_pskip=0 / chroma_qp_offset=-2 / threads=18 / lookahead_threads=3 / sliced_threads=0 / nr=0 / decimate=1 / interlaced=0 / bluray_compat=0 / constrained_intra=0 / bframes=3 / b_pyramid=2 / b_adapt=1 / b_bias=0 / direct=1 / weightb=1 / open_gop=0 / weightp=2 / keyint=250 / keyint_min=23 / scenecut=40 / intra_refresh=0 / rc_lookahead=40 / rc=2pass / mbtree=1 / bitrate=9602 / ratetol=1.0 / qcomp=0.60 / qpmin=0 / qpmax=69 / qpstep=4 / cplxblur=20.0 / qblur=0.5 / ip_ratio=1.40 / aq=1:1.00
  24. Language                                 : English
  25. Default                                  : Yes
  26. Forced                                   : No
  27. Audio
  28. ID                                       : 2
  29. Format                                   : DTS
  30. Format/Info                              : Digital Theater Systems
  31. Mode                                     : 16
  32. Format settings, Endianness              : Big
  33. Codec ID                                 : A_DTS
  34. Duration                                 : 1 h 38 min
  35. Bit rate mode                            : Constant
  36. Bit rate                                 : 1 509 kb/s
  37. Channel(s)                               : 6 channels
  38. Channel positions                        : Front: L C R, Side: L R, LFE
  39. Sampling rate                            : 48.0 kHz
  40. Frame rate                               : 93.750 FPS (512 spf)
  41. Bit depth                                : 24 bits
  42. Compression mode                         : Lossy
  43. Stream size                              : 1.04 GiB (14%)
  44. Language                                 : English
  45. Default                                  : Yes
  46. Forced                                   : No
  47. Text
  48. ID                                       : 3
  49. Format                                   : UTF-8
  50. Codec ID                                 : S_TEXT/UTF8
  51. Codec ID/Info                            : UTF-8 Plain Text
  52. Language                                 : English
  53. Default                                  : No
  54. Forced                                   : No
  55. Menu
  56. 00:00:00.000                             : en:00:00:00.000
  57. 00:03:24.204                             : en:00:03:24.204
  58. 00:06:20.797                             : en:00:06:20.797
  59. 00:08:02.982                             : en:00:08:02.982
  60. 00:11:28.563                             : en:00:11:28.563
  61. 00:14:36.876                             : en:00:14:36.876
  62. 00:18:34.238                             : en:00:18:34.238
  63. 00:22:27.555                             : en:00:22:27.555
  64. 00:26:49.233                             : en:00:26:49.233
  65. 00:31:23.882                             : en:00:31:23.882
  66. 00:33:02.981                             : en:00:33:02.981
  67. 00:37:40.425                             : en:00:37:40.425
  68. 00:45:22.720                             : en:00:45:22.720
  69. 00:47:59.293                             : en:00:47:59.293
  70. 00:52:18.969                             : en:00:52:18.969
  71. 00:56:03.443                             : en:00:56:03.443
  72. 01:04:19.022                             : en:01:04:19.022
  73. 01:07:48.439                             : en:01:07:48.439
  74. 01:09:50.061                             : en:01:09:50.061
  75. 01:12:35.434                             : en:01:12:35.434
  76. 01:16:43.933                             : en:01:16:43.933
  77. 01:22:41.874                             : en:01:22:41.874
  78. 01:26:14.294                             : en:01:26:14.294
  79. 01:31:55.927                             : en:01:31:55.927
复制代码









                                       
                                       

                                       
                                       
                                       




回复

使用道具 举报

蓝光币
21
发表于 2021-9-10 09:14:48 | 显示全部楼层
非常好的电影
回复

使用道具 举报

懒得打字嘛,点击右侧快捷回复 【右侧内容,后台自定义】
您需要登录后才可以回帖 登录 | 立即加入

本版积分规则

Archiver| |网站地图

Copyright © 2024 Comsenz Inc. Powered by 蓝光电影网

本站内容由用户自主分享和转载自互联网,转载目的在于传递更多信息,并不代表本网赞同其观点和对其真实性负责。

如有侵权、违反国家法律政策行为,请联系我们,我们会第一时间及时清除和处理!

举报反馈邮箱:4k1080.com@gmail.com

快速回复 返回顶部 返回列表