找回密码

查看: 1212|回复: 0

[喜剧] 圣诞精灵/大码小精灵 Elf.2003.1080p.BluRay.x264-CiNEFiLE 7.94GB

[复制链接]
蓝光币
2048
发表于 2020-12-11 18:53:31 | 显示全部楼层 |阅读模式


◎译  名 圣诞精灵/大码小精灵/精灵总带动/艾尔夫
◎片  名 Elf
◎年  代 2003
◎产  地 美国
◎类  别 笑剧 / 家庭 / 奇异
◎语  言 英语
◎上映日期 2003-11-07
◎IMDb评分  7/10 from 217273 users
◎IMDb链接  https://www.imdb.com/title/tt0319343/
◎豆瓣评分 6.8/10 from 3471 users
◎豆瓣链接 https://movie.douban.com/subject/1307576/
◎片  长 97分钟
◎导  演 乔恩·费儒 Jon Favreau
◎编  剧 大卫·贝伦鲍姆 David Berenbaum
◎主  演 威尔·法瑞尔 Will Ferrell
       詹姆斯·肯恩 James Caan
       佐伊·丹斯切尔 Zooey Deschanel
       玛丽·斯汀伯根 Mary Steenburgen
       爱德华·阿斯纳 Edward Asner
       鲍勃·纽哈特 Bob Newhart
       丹尼尔·泰伊 Daniel Tay
       费松·拉夫 Faizon Love
       彼特·丁拉基 Peter Dinklage
       艾米·塞德丽丝 Amy Sedaris
       迈克尔·勒纳 Michael Lerner
       安迪·里克特 Andy Richter
       凯尔·加斯 Kyle Gass
       阿尔蒂·兰格 Artie Lange
       利昂·瑞博 Leon Redbone
       雷·哈里豪森 Ray Harryhausen
       克莱尔·劳蒂尔  Claire Lautier
       乔恩·费儒 Jon Favreau
       大卫·贝伦鲍姆 David Berenbaum
       玛丽·布莱克 Mary Black
       马特·沃尔什 Matt Walsh
       威尔·麦克马克 Will McCormack
       彼得·比灵斯雷 Peter Billingsley
       格雷姆·达菲 Graeme Duffy
       莫里斯·拉马奇 Maurice LaMarche
       戴尔·麦肯南 Dal McKennon
       乔·兰福特 Joe Ranft
       Nance Nickels
       Luke Pohl
       Peter A. Hulne
       大卫·保罗·格罗夫 David Paul Grove
       Kristian Ayre
       Robin Mossley
       Reginald Colin Rowley
◎标  签 笑剧 | 美国 | 圣诞 | 美国电影 | 家庭 | 2003 | 搞笑 | 电影
◎简  介


  平安夜,圣诞老人(爱德华·阿斯纳 Edward Asner 饰)来到一家孤儿院给无家可归的孩子们送圣诞礼物。但是一个调皮的小婴孩不谨慎爬进了圣诞老人的玩具袋子里,居然被圣诞老人带回了北极。善良的圣诞老人收留了这个意外的小访客,并在小精灵们的帮助下,一同抚养他长大成人。可随着年龄的增加,渐渐成年的他(威尔·法瑞尔 Will Ferrell 饰)长得却比其他精灵们大出三倍之多,大师由此给他取了个绰号“大个巴迪”。
  
  偶然间,巴迪得知自己并非精灵种族而是人类。因而巴迪踏上了前赴纽约寻觅家人的旅程。终究,巴迪找到了失散已久的生父沃尔特(詹姆斯·凯恩 James Caan 饰)和素未蒙面的新家人。可正在筹划圣诞图书而忙得不成开交的沃尔特,并不晓得儿子巴迪的存在。面临陌生的现实天下以及冷酷的人情圆滑,巴迪显得有些举足无措。顿时又是圣诞节了,巴迪决议用自己的方式,给他的新家人以及全部天下一份最惊奇的圣诞礼物。
  1. Video
  2. ID                                       : 1
  3. Format                                   : AVC
  4. Format/Info                              : Advanced Video Codec
  5. Format profile                           : [email protected]
  6. Format settings                          : CABAC / 4 Ref Frames
  7. Format settings, CABAC                   : Yes
  8. Format settings, Reference frames        : 4 frames
  9. Codec ID                                 : V_MPEG4/ISO/AVC
  10. Duration                                 : 1 h 36 min
  11. Bit rate                                 : 10.2 Mb/s
  12. Width                                    : 1 920 pixels
  13. Height                                   : 1 080 pixels
  14. Display aspect ratio                     : 16:9
  15. Frame rate mode                          : Constant
  16. Frame rate                               : 23.976 FPS
  17. Color space                              : YUV
  18. Chroma subsampling                       : 4:2:0
  19. Bit depth                                : 8 bits
  20. Scan type                                : Progressive
  21. Bits/(Pixel*Frame)                       : 0.206
  22. Stream size                              : 6.77 GiB (85%)
  23. Writing library                          : x264 core 65 r999 cc51047
  24. Encoding settings                        : cabac=1 / ref=4 / deblock=1:0:0 / analyse=0x3:0x113 / me=umh / subme=7 / psy_rd=1.0:0.0 / mixed_ref=1 / me_range=16 / chroma_me=1 / trellis=1 / 8x8dct=1 / cqm=0 / deadzone=21,11 / chroma_qp_offset=-2 / threads=6 / nr=0 / decimate=1 / mbaff=0 / bframes=3 / b_pyramid=1 / b_adapt=1 / b_bias=0 / direct=1 / wpredb=1 / keyint=250 / keyint_min=25 / scenecut=40(pre) / rc=2pass / bitrate=10245 / ratetol=1.0 / qcomp=0.60 / qpmin=10 / qpmax=51 / qpstep=4 / cplxblur=20.0 / qblur=0.5 / ip_ratio=1.40 / pb_ratio=1.30 / aq=1:1.00
  25. Language                                 : English
  26. Default                                  : Yes
  27. Forced                                   : No

  28. Audio
  29. ID                                       : 2
  30. Format                                   : DTS
  31. Format/Info                              : Digital Theater Systems
  32. Codec ID                                 : A_DTS
  33. Duration                                 : 1 h 36 min
  34. Bit rate mode                            : Constant
  35. Bit rate                                 : 1 510 kb/s
  36. Channel(s)                               : 6 channels
  37. Channel layout                           : C L R Ls Rs LFE
  38. Sampling rate                            : 48.0 kHz
  39. Frame rate                               : 93.750 FPS (512 SPF)
  40. Bit depth                                : 24 bits
  41. Compression mode                         : Lossy
  42. Stream size                              : 1.02 GiB (13%)
  43. Language                                 : English
  44. Default                                  : Yes
  45. Forced                                   : No

  46. Text
  47. ID                                       : 3
  48. Format                                   : UTF-8
  49. Codec ID                                 : S_TEXT/UTF8
  50. Codec ID/Info                            : UTF-8 Plain Text
  51. Language                                 : English
  52. Default                                  : No
  53. Forced                                   : No
复制代码



                                       
                                       

                                       
                                       
                                       




回复

使用道具 举报

懒得打字嘛,点击右侧快捷回复 【右侧内容,后台自定义】
您需要登录后才可以回帖 登录 | 立即加入

本版积分规则

Archiver| |网站地图

Copyright © 2024 Comsenz Inc. Powered by 蓝光电影网

本站内容由用户自主分享和转载自互联网,转载目的在于传递更多信息,并不代表本网赞同其观点和对其真实性负责。

如有侵权、违反国家法律政策行为,请联系我们,我们会第一时间及时清除和处理!

举报反馈邮箱:4k1080.com@gmail.com

快速回复 返回顶部 返回列表