找回密码

查看: 1326|回复: 0

[动作] 金色手杖战士 The.Golden.Cane.Warrior.2014.1080p.BluRay.x264-ROVERS 7.94GB

[复制链接]
蓝光币
2039
发表于 2019-6-14 10:02:35 | 显示全部楼层 |阅读模式


◎译  名 金色手杖战士 / The Golden Cane Warrior
◎片  名 Pendekar Tongkat Emas
◎年  代 2014
◎产  地 印尼
◎类  别 行动
◎语  言 印尼语
◎上映日期 2014-12-18(印尼)
◎IMDb评分  6.3/10 from 682 users
◎IMDb链接  http://www.imdb.com/title/tt4235342
◎豆瓣评分 5.7/10 from 120 users
◎豆瓣链接 https://movie.douban.com/subject/26425490/
◎片  长 112分钟
◎导  演 Ifa Isfansyah
◎编  剧 Ifa Isfansyah
◎主  演 Tara Basro
      克里斯汀·哈金 Christine Hakim
      尼古拉斯·沙普泰拉 Nicholas Saputra
      Eva Celia Latjuba
      Reza Rahadian

◎标  签 行动 | 印尼 | 印度尼西亚电影 | 2014 | 武侠 | 印度 | 印度尼西亚 | 2015
◎简  介  
  Cempaka是一位武术大师,有“金色手杖战士”之称。她有4个门生,别离是Biru、Gerhana、Dara Angin。他们都是曩昔她对手的孩子,她筹算将其终极技艺——金色手杖传给其中一个门生。
终极,她挑选了Dara作为继续人,成为金色手杖战士。虽然Dara一路头对继续金色手杖很是不安,但终极克服自己,成为一位出色的金色手杖战士。
  1. Video
  2. ID                                       : 1
  3. Format                                   : AVC
  4. Format/Info                              : Advanced Video Codec
  5. Format profile                           : [email protected]
  6. Format settings                          : CABAC / 5 Ref Frames
  7. Format settings, CABAC                   : Yes
  8. Format settings, ReFrames                : 5 frames
  9. Codec ID                                 : V_MPEG4/ISO/AVC
  10. Duration                                 : 1 h 51 min
  11. Bit rate                                 : 8 729 kb/s
  12. Width                                    : 1 920 pixels
  13. Height                                   : 800 pixels
  14. Display aspect ratio                     : 2.40:1
  15. Frame rate mode                          : Constant
  16. Frame rate                               : 24.000 FPS
  17. Color space                              : YUV
  18. Chroma subsampling                       : 4:2:0
  19. Bit depth                                : 8 bits
  20. Scan type                                : Progressive
  21. Bits/(Pixel*Frame)                       : 0.237
  22. Stream size                              : 6.77 GiB (85%)
  23. Writing library                          : x264 core 148 r2597 e86f3a1
  24. Encoding settings                        : cabac=1 / ref=5 / deblock=1:0:0 / analyse=0x3:0x133 / me=umh / subme=7 / psy=1 / psy_rd=1.00:0.00 / mixed_ref=1 / me_range=16 / chroma_me=1 / trellis=1 / 8x8dct=1 / cqm=0 / deadzone=21,11 / fast_pskip=0 / chroma_qp_offset=-2 / threads=18 / lookahead_threads=3 / sliced_threads=0 / nr=0 / decimate=1 / interlaced=0 / bluray_compat=0 / constrained_intra=0 / bframes=3 / b_pyramid=2 / b_adapt=1 / b_bias=0 / direct=1 / weightb=1 / open_gop=0 / weightp=2 / keyint=250 / keyint_min=23 / scenecut=40 / intra_refresh=0 / rc_lookahead=40 / rc=2pass / mbtree=1 / bitrate=8729 / ratetol=1.0 / qcomp=0.60 / qpmin=0 / qpmax=69 / qpstep=4 / cplxblur=20.0 / qblur=0.5 / ip_ratio=1.40 / aq=1:1.00
  25. Language                                 : Indonesian
  26. Default                                  : Yes
  27. Forced                                   : No
  28. Audio
  29. ID                                       : 2
  30. Format                                   : DTS
  31. Format/Info                              : Digital Theater Systems
  32. Codec ID                                 : A_DTS
  33. Duration                                 : 1 h 51 min
  34. Bit rate mode                            : Constant
  35. Bit rate                                 : 1 509 kb/s
  36. Channel(s)                               : 6 channels
  37. Channel layout                           : C L R Ls Rs LFE
  38. Sampling rate                            : 48.0 kHz
  39. Frame rate                               : 93.750 FPS (512 SPF)
  40. Bit depth                                : 24 bits
  41. Compression mode                         : Lossy
  42. Stream size                              : 1.17 GiB (15%)
  43. Default                                  : Yes
  44. Forced                                   : No
  45. Text
  46. ID                                       : 3
  47. Format                                   : UTF-8
  48. Codec ID                                 : S_TEXT/UTF8
  49. Codec ID/Info                            : UTF-8 Plain Text
  50. Duration                                 : 1 h 44 min
  51. Bit rate                                 : 21 b/s
  52. Count of elements                        : 508
  53. Stream size                              : 16.5 KiB (0%)
  54. Title                                    : English
  55. Language                                 : English
  56. Default                                  : Yes
  57. Forced                                   : Yes
  58. Menu
  59. 00:00:00.000                             : en:00:00:00.000
  60. 00:09:27.458                             : en:00:09:27.458
  61. 00:17:34.167                             : en:00:17:34.167
  62. 00:23:35.708                             : en:00:23:35.708
  63. 00:33:56.750                             : en:00:33:56.750
  64. 00:43:22.042                             : en:00:43:22.042
  65. 00:56:35.542                             : en:00:56:35.542
  66. 01:03:39.792                             : en:01:03:39.792
  67. 01:14:50.792                             : en:01:14:50.792
  68. 01:25:14.042                             : en:01:25:14.042
  69. 01:39:43.042                             : en:01:39:43.042
  70. 01:45:22.042                             : en:01:45:22.042
复制代码






                                       
                                       

                                       
                                       
                                       




相关帖子

回复

使用道具 举报

懒得打字嘛,点击右侧快捷回复 【右侧内容,后台自定义】
您需要登录后才可以回帖 登录 | 立即加入

本版积分规则

Archiver| |网站地图

Copyright © 2024 Comsenz Inc. Powered by 蓝光电影网

本站内容由用户自主分享和转载自互联网,转载目的在于传递更多信息,并不代表本网赞同其观点和对其真实性负责。

如有侵权、违反国家法律政策行为,请联系我们,我们会第一时间及时清除和处理!

举报反馈邮箱:4k1080.com@gmail.com

快速回复 返回顶部 返回列表