找回密码

查看: 1250|回复: 0

[喜剧] 雪谷之狼 The.Wolf.of.Snow.Hollow.2020.1080p.BluRay.x264-WoAT 8.53GB

[复制链接]
蓝光币
2048
发表于 2020-12-9 23:27:38 | 显示全部楼层 |阅读模式


◎译  名 雪谷之狼/The Werewolf
◎片  名 The Wolf of Snow Hollow
◎年  代 2020
◎产  地 美国
◎类  别 笑剧 / 惊悚 / 可骇
◎语  言 英语
◎上映日期 2020-10-09(美国)
◎IMDb评分  6.3/10 from 6295 users
◎IMDb链接  https://www.imdb.com/title/tt11140488/
◎豆瓣评分 5.7/10 from 500 users
◎豆瓣链接 https://movie.douban.com/subject/34967890/
◎片  长 83分钟
◎导  演 吉姆·卡明斯 Jim Cummings
◎编  剧 吉姆·卡明斯 Jim Cummings
◎主  演 瑞琪·琳德赫姆 Riki Lindhome
       吉米·塔特罗 Jimmy Tatro
       罗伯特·福斯特 Robert Forster
       马歇尔·奥尔曼 Marshall Allman
       吉姆·卡明斯 Jim Cummings
       克洛伊·伊斯特 Chloe East
       劳拉·库弗 Laura Coover
       凯尔西·爱德华兹 Kelsey Edwards
       斯凯勒·拜布尔 Skyler Bible
       黛安·D·比姆 Diane D. Beam
       达斯廷·哈恩 Dustin Hahn
◎标  签 惊悚 | 美国 | 黑色诙谐 | 可骇 | 犯罪 | 笑剧 | 狼人 | 2020
◎简  介


  吉姆·卡明斯自编自导并介入表演的惊悚黑色笑剧[雪谷之狼](The Wolf of Snow Hollow,暂译)公布第一批剧照,吉姆饰演正在戒酒的混混警官,他深信小镇来了连环杀手,但小镇居民却以为那是一个狼人。瑞琪·琳德赫姆饰演他明智的同伴,客岁十月过世的罗伯特·福斯特则饰演他的父亲、也是小镇警长,这是福斯特最初一次大银幕表演。本片将于10月9日登陆院线。
  1. Video
  2. ID                                       : 1
  3. Format                                   : AVC
  4. Format/Info                              : Advanced Video Codec
  5. Format profile                           : [email protected]
  6. Format settings                          : CABAC / 4 Ref Frames
  7. Format settings, CABAC                   : Yes
  8. Format settings, Reference frames        : 4 frames
  9. Codec ID                                 : V_MPEG4/ISO/AVC
  10. Duration                                 : 1 h 24 min
  11. Bit rate                                 : 12.5 Mb/s
  12. Width                                    : 1 920 pixels
  13. Height                                   : 1 036 pixels
  14. Display aspect ratio                     : 1.85:1
  15. Frame rate mode                          : Constant
  16. Frame rate                               : 23.976 (24000/1001/189150) FPS
  17. Color space                              : YUV
  18. Chroma subsampling                       : 4:2:0
  19. Bit depth                                : 8 bits
  20. Scan type                                : Progressive
  21. Bits/(Pixel*Frame)                       : 0.261
  22. Stream size                              : 7.37 GiB (86%)
  23. Writing library                          : x264 core 161 r3027 4121277
  24. Encoding settings                        : cabac=1 / ref=4 / deblock=1:-3:-3 / analyse=0x3:0x133 / me=umh / subme=9 / psy=1 / psy_rd=1.00:0.00 / mixed_ref=1 / me_range=32 / chroma_me=1 / trellis=2 / 8x8dct=1 / cqm=0 / deadzone=21,11 / fast_pskip=0 / chroma_qp_offset=-2 / threads=32 / lookahead_threads=5 / sliced_threads=0 / nr=0 / decimate=0 / interlaced=0 / bluray_compat=0 / constrained_intra=0 / bframes=9 / b_pyramid=2 / b_adapt=2 / b_bias=0 / direct=3 / weightb=1 / open_gop=0 / weightp=2 / keyint=250 / keyint_min=23 / scenecut=40 / intra_refresh=0 / rc=crf / mbtree=0 / crf=16.0 / qcomp=0.60 / qpmin=0 / qpmax=69 / qpstep=4 / ip_ratio=1.40 / pb_ratio=1.30 / aq=3:0.88
  25. Default                                  : Yes
  26. Forced                                   : No
  27. Color range                              : Limited
  28. Matrix coefficients                      : BT.709

  29. Audio
  30. ID                                       : 2
  31. Format                                   : DTS XLL
  32. Format/Info                              : Digital Theater Systems
  33. Commercial name                          : DTS-HD Master Audio
  34. Codec ID                                 : A_DTS
  35. Duration                                 : 1 h 24 min
  36. Bit rate mode                            : Variable
  37. Bit rate                                 : 1 945 kb/s
  38. Channel(s)                               : 6 channels
  39. Channel layout                           : C L R Ls Rs LFE
  40. Sampling rate                            : 48.0 kHz
  41. Frame rate                               : 93.750 FPS (512 SPF)
  42. Bit depth                                : 16 bits
  43. Compression mode                         : Lossless
  44. Stream size                              : 1.15 GiB (13%)
  45. Title                                    : English
  46. Language                                 : English
  47. Default                                  : No
  48. Forced                                   : No

  49. Text
  50. ID                                       : 3
  51. Format                                   : PGS
  52. Muxing mode                              : zlib
  53. Codec ID                                 : S_HDMV/PGS
  54. Codec ID/Info                            : Picture based subtitle format used on BDs/HD-DVDs
  55. Duration                                 : 1 h 21 min
  56. Bit rate                                 : 35.6 kb/s
  57. Count of elements                        : 2014
  58. Stream size                              : 20.8 MiB (0%)
  59. Title                                    : Dutch
  60. Language                                 : Dutch
  61. Default                                  : No
  62. Forced                                   : No

  63. Menu
  64. 00:00:00.000                             : en:Chapter 01
  65. 00:13:52.081                             : en:Chapter 02
  66. 00:24:22.378                             : en:Chapter 03
  67. 00:33:31.384                             : en:Chapter 04
  68. 00:44:51.230                             : en:Chapter 05
  69. 00:50:25.940                             : en:Chapter 06
  70. 01:04:09.679                             : en:Chapter 07
  71. 01:10:40.695                             : en:Chapter 08
  72. 01:19:38.732                             : en:Chapter 09
复制代码



                                       
                                       

                                       
                                       
                                       




回复

使用道具 举报

懒得打字嘛,点击右侧快捷回复 【右侧内容,后台自定义】
您需要登录后才可以回帖 登录 | 立即加入

本版积分规则

Archiver| |网站地图

Copyright © 2024 Comsenz Inc. Powered by 蓝光电影网

本站内容由用户自主分享和转载自互联网,转载目的在于传递更多信息,并不代表本网赞同其观点和对其真实性负责。

如有侵权、违反国家法律政策行为,请联系我们,我们会第一时间及时清除和处理!

举报反馈邮箱:4k1080.com@gmail.com

快速回复 返回顶部 返回列表