找回密码

查看: 1361|回复: 0

[喜剧] 没决断力的懦夫 Faintheart.2008.1080p.BluRay.x264-HANDJOB 7.54GB

[复制链接]
蓝光币
2048
发表于 2020-12-9 11:19:53 | 显示全部楼层 |阅读模式


◎译  名 没定夺力的怯夫
◎片  名 Faintheart
◎年  代 2008
◎产  地 英国
◎类  别 笑剧
◎语  言 英语
◎上映日期 2009-01-23
◎IMDb评分  6.3/10 from 961 users
◎IMDb链接  https://www.imdb.com/title/tt1080012/
◎豆瓣评分 /10 from 0 users
◎豆瓣链接 https://movie.douban.com/subject/3230181/
◎片  长 UK: 90 分钟(Cambridge Film Festival)
◎主  演 埃迪·马森 Eddie Marsan
       布罗娜·加拉赫 Bronagh Gallagher
       Joe Golby
       Phil Lester
       Calum Chalmers
       Chris R. Wright
       尼克·鲍尔 Nick Ball
       桑德拉·沃 Sandra Voe
       Edward Tudor-Pole
       安妮·雷德 Anne Reid
       杰西卡·海因斯 Jessica Hynes
       提姆·希利 Tim Healy
       艾文·布莱纳 Ewen Bremner
       保罗·尼科尔斯 Paul Nicholls
◎标  签 英国 | 笑剧 | 恋爱 | 英语的标签 | 英国电影 | 我看过的电影 | 我看过的英语电影 | 2008
◎简  介


  这是一个浪漫的笑剧。一个不负义务的人,为了重新赢取他的妻子的心,起头了一段可笑的旅途。
  1. Video
  2. ID                                       : 1
  3. Format                                   : AVC
  4. Format/Info                              : Advanced Video Codec
  5. Format profile                           : [email protected]
  6. Format settings                          : CABAC / 5 Ref Frames
  7. Format settings, CABAC                   : Yes
  8. Format settings, Reference frames        : 5 frames
  9. Codec ID                                 : V_MPEG4/ISO/AVC
  10. Duration                                 : 1 h 30 min
  11. Bit rate                                 : 11.3 Mb/s
  12. Width                                    : 1 920 pixels
  13. Height                                   : 818 pixels
  14. Display aspect ratio                     : 2.35:1
  15. Frame rate mode                          : Constant
  16. Frame rate                               : 24.000 FPS
  17. Color space                              : YUV
  18. Chroma subsampling                       : 4:2:0
  19. Bit depth                                : 8 bits
  20. Scan type                                : Progressive
  21. Bits/(Pixel*Frame)                       : 0.299
  22. Stream size                              : 7.12 GiB (94%)
  23. Writing library                          : x264 core 157 r2935 545de2f
  24. Encoding settings                        : cabac=1 / ref=5 / deblock=1:-3:-3 / analyse=0x3:0x133 / me=umh / subme=10 / psy=1 / psy_rd=1.00:0.00 / mixed_ref=1 / me_range=32 / chroma_me=1 / trellis=2 / 8x8dct=1 / cqm=0 / deadzone=21,11 / fast_pskip=0 / chroma_qp_offset=-2 / threads=9 / lookahead_threads=2 / sliced_threads=0 / nr=0 / decimate=0 / interlaced=0 / bluray_compat=0 / constrained_intra=0 / bframes=16 / b_pyramid=2 / b_adapt=2 / b_bias=0 / direct=3 / weightb=1 / open_gop=0 / weightp=2 / keyint=240 / keyint_min=24 / scenecut=40 / intra_refresh=0 / rc_lookahead=60 / rc=crf / mbtree=0 / crf=20.0 / qcomp=0.60 / qpmin=0 / qpmax=69 / qpstep=4 / vbv_maxrate=62500 / vbv_bufsize=78125 / crf_max=0.0 / nal_hrd=none / filler=0 / ip_ratio=1.40 / pb_ratio=1.30 / aq=2:1.00
  25. Default                                  : Yes
  26. Forced                                   : No
  27. Color range                              : Limited
  28. Color primaries                          : BT.709
  29. Transfer characteristics                 : BT.709
  30. Matrix coefficients                      : BT.709
  31. Audio
  32. ID                                       : 2
  33. Format                                   : AC-3
  34. Format/Info                              : Audio Coding 3
  35. Commercial name                          : Dolby Digital
  36. Codec ID                                 : A_AC3
  37. Duration                                 : 1 h 30 min
  38. Bit rate mode                            : Constant
  39. Bit rate                                 : 640 kb/s
  40. Channel(s)                               : 6 channels
  41. Channel layout                           : L R C LFE Ls Rs
  42. Sampling rate                            : 48.0 kHz
  43. Frame rate                               : 31.250 FPS (1536 SPF)
  44. Compression mode                         : Lossy
  45. Stream size                              : 414 MiB (5%)
  46. Language                                 : English
  47. Service kind                             : Complete Main
  48. Default                                  : Yes
  49. Forced                                   : No
  50. Text
  51. ID                                       : 3
  52. Format                                   : PGS
  53. Codec ID                                 : S_HDMV/PGS
  54. Codec ID/Info                            : Picture based subtitle format used on BDs/HD-DVDs
  55. Duration                                 : 1 h 24 min
  56. Bit rate                                 : 24.1 kb/s
  57. Count of elements                        : 1532
  58. Stream size                              : 14.6 MiB (0%)
  59. Language                                 : German
  60. Default                                  : No
  61. Forced                                   : No
  62. Menu
  63. 00:00:00.083                             : :Chapter 1
  64. 00:07:38.208                             : :Chapter 2
  65. 00:15:03.708                             : :Chapter 3
  66. 00:22:02.708                             : :Chapter 4
  67. 00:30:04.083                             : :Chapter 5
  68. 00:37:32.083                             : :Chapter 6
  69. 00:44:43.458                             : :Chapter 7
  70. 00:52:25.708                             : :Chapter 8
  71. 01:00:29.333                             : :Chapter 9
  72. 01:08:57.208                             : :Chapter 10
  73. 01:15:58.083                             : :Chapter 11
  74. 01:24:57.583                             : :Chapter 12
复制代码



                                       
                                       

                                       
                                       
                                       




回复

使用道具 举报

懒得打字嘛,点击右侧快捷回复 【右侧内容,后台自定义】
您需要登录后才可以回帖 登录 | 立即加入

本版积分规则

Archiver| |网站地图

Copyright © 2024 Comsenz Inc. Powered by 蓝光电影网

本站内容由用户自主分享和转载自互联网,转载目的在于传递更多信息,并不代表本网赞同其观点和对其真实性负责。

如有侵权、违反国家法律政策行为,请联系我们,我们会第一时间及时清除和处理!

举报反馈邮箱:4k1080.com@gmail.com

快速回复 返回顶部 返回列表