找回密码

查看: 1580|回复: 1

[剧情] 疤面煞星/疤脸人 Scarface.1983.REMASTERED.1080p.BluRay.REMUX.AVC.DTS-HD.MA.7.1-FGT 31.63GB

[复制链接]
蓝光币
2048
发表于 2019-10-14 20:06:12 | 显示全部楼层 |阅读模式


◎译  名 疤面煞星 / 疤脸人 / 疤面人
◎片  名 Scarface
◎年  代 1983
◎产  地 美国
◎类  别 剧情 / 惊悚 / 犯罪
◎语  言 英语 / 西班牙语
◎上映日期 1983-12-01
◎IMDb评分  8.3/10 from 678058 users
◎IMDb链接  https://www.imdb.com/title/tt0086250
◎豆瓣评分 8.3/10 from 44839 users
◎豆瓣链接 https://movie.douban.com/subject/1292065/
◎片  长 170 分钟
◎导  演 布莱恩·德·帕尔玛 Brian De Palma
◎编  剧 奥利佛·斯通 Oliver Stone
◎主  演 阿尔·帕西诺 Al Pacino
       斯蒂文·鲍尔 Steven Bauer
       米歇尔·菲佛 Michelle Pfeiffer
       玛丽·伊丽莎白·马斯特兰托尼奥 Mary Elizabeth Mastrantonio
       罗伯特·劳吉亚 Robert Loggia

◎标  签 黑帮 | 阿尔·帕西诺 | 犯罪 | 美国 | AlPacino | 暴力 | 典范 | 美国电影
◎简  介  
  古巴难民青年托尼(阿尔?帕西诺 Al Pacino 饰)逃难来到了美国的迈阿密,成了一个典型的天不怕、地不怕的美国陌头小混混。托尼在当地的一个毒枭手下干活,因其心慈手软、胆小心小,非常出色地帮老迈完成了几件使命而敏捷遭到欣赏,成为毒枭的第一得力助手。
  但是托尼并没有就此满足,他先是从委内瑞拉的毒枭那边接下了大票据,接着将自己的眼中钉一颗颗撤除,势力不竭扩大。当他的老迈感遭到威胁时已经太晚了,托尼将老迈干掉然后一统了迈阿密毒品市场的全国。
  托尼失势后他的性情起头变得捕风捉影,对四周的人甚至嫡亲的家人、好兄弟都布满思疑。狐疑使他逐步走上了不归路!
  1. Video
  2. ID                                       : 1
  3. Format                                   : AVC
  4. Format/Info                              : Advanced Video Codec
  5. Format profile                           : [email protected]
  6. Format settings                          : CABAC / 4 Ref Frames
  7. Format settings, CABAC                   : Yes
  8. Format settings, Reference frames        : 4 frames
  9. Codec ID                                 : V_MPEG4/ISO/AVC
  10. Duration                                 : 2 h 49 min
  11. Bit rate mode                            : Variable
  12. Bit rate                                 : 18.6 Mb/s
  13. Maximum bit rate                         : 35.0 Mb/s
  14. Width                                    : 1 920 pixels
  15. Height                                   : 1 080 pixels
  16. Display aspect ratio                     : 16:9
  17. Frame rate mode                          : Constant
  18. Frame rate                               : 23.976 (24000/1001) FPS
  19. Color space                              : YUV
  20. Chroma subsampling                       : 4:2:0
  21. Bit depth                                : 8 bits
  22. Scan type                                : Progressive
  23. Bits/(Pixel*Frame)                       : 0.375
  24. Stream size                              : 22.1 GiB (70%)
  25. Title                                    : Scarface.1983.REMASTERED.1080p.BluRay.REMUX.AVC.DTS-HD.MA.7.1-FGT
  26. Language                                 : English
  27. Default                                  : No
  28. Forced                                   : No
  29. Audio #1
  30. ID                                       : 2
  31. Format                                   : DTS XLL
  32. Format/Info                              : Digital Theater Systems
  33. Commercial name                          : DTS-HD Master Audio
  34. Codec ID                                 : A_DTS
  35. Duration                                 : 2 h 49 min
  36. Bit rate mode                            : Variable
  37. Bit rate                                 : 5 687 kb/s
  38. Channel(s)                               : 8 channels
  39. Channel layout                           : C L R LFE Lb Rb Lss Rss
  40. Sampling rate                            : 48.0 kHz
  41. Frame rate                               : 93.750 FPS (512 SPF)
  42. Bit depth                                : 24 bits
  43. Compression mode                         : Lossless
  44. Stream size                              : 6.75 GiB (21%)
  45. Title                                    : Scarface.1983.REMASTERED.1080p.BluRay.REMUX.AVC.DTS-HD.MA.7.1-FGT
  46. Language                                 : English
  47. Default                                  : Yes
  48. Forced                                   : No
  49. Audio #2
  50. ID                                       : 3
  51. Format                                   : DTS
  52. Format/Info                              : Digital Theater Systems
  53. Codec ID                                 : A_DTS
  54. Duration                                 : 2 h 49 min
  55. Bit rate mode                            : Constant
  56. Bit rate                                 : 768 kb/s
  57. Channel(s)                               : 2 channels
  58. Channel layout                           : Lt Rt
  59. Sampling rate                            : 48.0 kHz
  60. Frame rate                               : 93.750 FPS (512 SPF)
  61. Bit depth                                : 24 bits
  62. Compression mode                         : Lossy
  63. Stream size                              : 933 MiB (3%)
  64. Title                                    : Scarface.1983.REMASTERED.1080p.BluRay.REMUX.AVC.DTS-HD.MA.7.1-FGT
  65. Language                                 : English
  66. Default                                  : No
  67. Forced                                   : No
  68. Audio #3
  69. ID                                       : 4
  70. Format                                   : DTS
  71. Format/Info                              : Digital Theater Systems
  72. Codec ID                                 : A_DTS
  73. Duration                                 : 2 h 49 min
  74. Bit rate mode                            : Constant
  75. Bit rate                                 : 768 kb/s
  76. Channel(s)                               : 2 channels
  77. Channel layout                           : L R
  78. Sampling rate                            : 48.0 kHz
  79. Frame rate                               : 93.750 FPS (512 SPF)
  80. Bit depth                                : 24 bits
  81. Compression mode                         : Lossy
  82. Stream size                              : 933 MiB (3%)
  83. Title                                    : Scarface.1983.REMASTERED.1080p.BluRay.REMUX.AVC.DTS-HD.MA.7.1-FGT
  84. Language                                 : Spanish
  85. Default                                  : No
  86. Forced                                   : No
  87. Audio #4
  88. ID                                       : 5
  89. Format                                   : DTS
  90. Format/Info                              : Digital Theater Systems
  91. Codec ID                                 : A_DTS
  92. Duration                                 : 2 h 49 min
  93. Bit rate mode                            : Constant
  94. Bit rate                                 : 768 kb/s
  95. Channel(s)                               : 2 channels
  96. Channel layout                           : L R
  97. Sampling rate                            : 48.0 kHz
  98. Frame rate                               : 93.750 FPS (512 SPF)
  99. Bit depth                                : 24 bits
  100. Compression mode                         : Lossy
  101. Stream size                              : 933 MiB (3%)
  102. Title                                    : Scarface.1983.REMASTERED.1080p.BluRay.REMUX.AVC.DTS-HD.MA.7.1-FGT
  103. Language                                 : French
  104. Default                                  : No
  105. Forced                                   : No
  106. Text #1
  107. ID                                       : 6
  108. Format                                   : UTF-8
  109. Codec ID                                 : S_TEXT/UTF8
  110. Codec ID/Info                            : UTF-8 Plain Text
  111. Duration                                 : 2 h 39 min
  112. Bit rate                                 : 57 b/s
  113. Count of elements                        : 2268
  114. Stream size                              : 67.5 KiB (0%)
  115. Title                                    : English-SRT
  116. Language                                 : English
  117. Default                                  : Yes
  118. Forced                                   : No
  119. Text #2
  120. ID                                       : 7
  121. Format                                   : UTF-8
  122. Codec ID                                 : S_TEXT/UTF8
  123. Codec ID/Info                            : UTF-8 Plain Text
  124. Duration                                 : 2 h 42 min
  125. Bit rate                                 : 59 b/s
  126. Count of elements                        : 2406
  127. Stream size                              : 70.7 KiB (0%)
  128. Title                                    : English-SDH-SRT
  129. Language                                 : English
  130. Default                                  : No
  131. Forced                                   : No
  132. Text #3
  133. ID                                       : 8
  134. Format                                   : PGS
  135. Muxing mode                              : zlib
  136. Codec ID                                 : S_HDMV/PGS
  137. Codec ID/Info                            : Picture based subtitle format used on BDs/HD-DVDs
  138. Duration                                 : 2 h 42 min
  139. Bit rate                                 : 39.8 kb/s
  140. Count of elements                        : 4816
  141. Stream size                              : 46.2 MiB (0%)
  142. Title                                    : English-PGS
  143. Language                                 : English
  144. Default                                  : No
  145. Forced                                   : No
  146. Text #4
  147. ID                                       : 9
  148. Format                                   : PGS
  149. Muxing mode                              : zlib
  150. Codec ID                                 : S_HDMV/PGS
  151. Codec ID/Info                            : Picture based subtitle format used on BDs/HD-DVDs
  152. Duration                                 : 2 h 43 min
  153. Bit rate                                 : 25.0 kb/s
  154. Count of elements                        : 3683
  155. Stream size                              : 29.4 MiB (0%)
  156. Title                                    : Spanish-PGS
  157. Language                                 : Spanish
  158. Default                                  : No
  159. Forced                                   : No
  160. Text #5
  161. ID                                       : 10
  162. Format                                   : PGS
  163. Muxing mode                              : zlib
  164. Codec ID                                 : S_HDMV/PGS
  165. Codec ID/Info                            : Picture based subtitle format used on BDs/HD-DVDs
  166. Duration                                 : 2 h 43 min
  167. Bit rate                                 : 28.2 kb/s
  168. Count of elements                        : 3636
  169. Stream size                              : 33.0 MiB (0%)
  170. Title                                    : French-PGS
  171. Language                                 : French
  172. Default                                  : No
  173. Forced                                   : No
  174. Text #6
  175. ID                                       : 11
  176. Format                                   : PGS
  177. Muxing mode                              : zlib
  178. Codec ID                                 : S_HDMV/PGS
  179. Codec ID/Info                            : Picture based subtitle format used on BDs/HD-DVDs
  180. Duration                                 : 1 h 19 min
  181. Bit rate                                 : 90 b/s
  182. Count of elements                        : 6
  183. Stream size                              : 53.0 KiB (0%)
  184. Title                                    : Spanish-FORCED-PGS
  185. Language                                 : Spanish
  186. Default                                  : No
  187. Forced                                   : No
  188. Text #7
  189. ID                                       : 12
  190. Format                                   : PGS
  191. Muxing mode                              : zlib
  192. Codec ID                                 : S_HDMV/PGS
  193. Codec ID/Info                            : Picture based subtitle format used on BDs/HD-DVDs
  194. Duration                                 : 2 h 43 min
  195. Bit rate                                 : 741 b/s
  196. Count of elements                        : 80
  197. Stream size                              : 890 KiB (0%)
  198. Title                                    : French-FORCED-PGS
  199. Language                                 : French
  200. Default                                  : No
  201. Forced                                   : No
  202. Menu
  203. 00:00:00.000                             : en:Chapter 01
  204. 00:08:11.532                             : en:Chapter 02
  205. 00:10:55.196                             : en:Chapter 03
  206. 00:13:40.152                             : en:Chapter 04
  207. 00:15:42.983                             : en:Chapter 05
  208. 00:20:58.257                             : en:Chapter 06
  209. 00:29:51.247                             : en:Chapter 07
  210. 00:33:09.320                             : en:Chapter 08
  211. 00:34:42.497                             : en:Chapter 09
  212. 00:43:13.132                             : en:Chapter 10
  213. 00:46:46.011                             : en:Chapter 11
  214. 00:50:45.208                             : en:Chapter 12
  215. 00:59:02.664                             : en:Chapter 13
  216. 01:04:15.601                             : en:Chapter 14
  217. 01:08:20.429                             : en:Chapter 15
  218. 01:12:57.498                             : en:Chapter 16
  219. 01:17:17.799                             : en:Chapter 17
  220. 01:23:33.091                             : en:Chapter 18
  221. 01:28:48.323                             : en:Chapter 19
  222. 01:33:44.243                             : en:Chapter 20
  223. 01:43:31.496                             : en:Chapter 21
  224. 01:47:01.706                             : en:Chapter 22
  225. 01:51:48.410                             : en:Chapter 23
  226. 01:57:19.991                             : en:Chapter 24
  227. 02:02:43.105                             : en:Chapter 25
  228. 02:07:08.203                             : en:Chapter 26
  229. 02:13:58.405                             : en:Chapter 27
  230. 02:16:04.447                             : en:Chapter 28
  231. 02:21:46.080                             : en:Chapter 29
  232. 02:24:22.779                             : en:Chapter 30
  233. 02:30:37.862                             : en:Chapter 31
  234. 02:35:14.888                             : en:Chapter 32
  235. 02:37:33.068                             : en:Chapter 33
  236. 02:40:04.303                             : en:Chapter 34
  237. 02:43:20.999                             : en:Chapter 35
复制代码






                                       
                                       

                                       
                                       
                                       




回复

使用道具 举报

蓝光币
19
发表于 2022-6-1 12:49:39 | 显示全部楼层
谢谢大佬
回复

使用道具 举报

懒得打字嘛,点击右侧快捷回复 【右侧内容,后台自定义】
您需要登录后才可以回帖 登录 | 立即加入

本版积分规则

Archiver| |网站地图

Copyright © 2024 Comsenz Inc. Powered by 蓝光电影网

本站内容由用户自主分享和转载自互联网,转载目的在于传递更多信息,并不代表本网赞同其观点和对其真实性负责。

如有侵权、违反国家法律政策行为,请联系我们,我们会第一时间及时清除和处理!

举报反馈邮箱:4k1080.com@gmail.com

快速回复 返回顶部 返回列表