找回密码

查看: 3126|回复: 0

[惊悚] 午夜的柳枝 Midnight.in.the.Switchgrass.2021.1080p.BluRay.REMUX.AVC.DTS-HD.MA.5.1-FGT 20.12GB

[复制链接]
蓝光币
2048
发表于 2021-7-23 12:36:41 | 显示全部楼层 |阅读模式


◎译  名 半夜的柳枝
◎片  名 Midnight in the Switchgrass
◎年  代 2021
◎产  地 美国
◎类  别 惊悚 / 犯罪
◎语  言 英语
◎上映日期 2021-07-23(美国)
◎豆瓣评分 5.0/10 from 450 users
◎豆瓣链接 https://movie.douban.com/subject/35002786/
◎片  长 99分钟
◎导  演 兰道尔·艾米特 Randall Emmett
◎主  演 梅根·福克斯 Megan Fox
       机关枪凯利 Machine Gun Kelly
       埃米尔·赫斯基 Emile Hirsch
       布鲁斯·威利斯 Bruce Willis
       卢卡斯·哈斯 Lukas Haas
       凯特琳·卡迈克尔 Caitlin Carmichael
       奥利弗·伊莉丝·阿伯克隆比 Olive Elise Abercrombie
       丽迪雅·赫尔 Lydia Hull
       杰基·克鲁兹 Jackie Cruz
       泰勒·乔恩·奥尔森 Tyler Jon Olson
       斯温·特梅尔 Swen Temmel
       希斯蒂妮·史泰龙 Sistine Rose Stallone
       迈克尔·比奇 Michael Beach
       多诺万·W·卡特 Donovan W. Carter
       奥马尔·克鲁兹·索托 Omar Cruz Soto
       大卫·希尔 David Hill
       让·皮埃尔·普拉茨 Jean Pierre Prats
       小戴维·M·桑多瓦尔 David M Sandoval Jr.
◎标  签 犯罪 | 美国 | 2021 | 梅根·福克斯 | 布鲁斯·威利斯 | 惊悚 | 美国电影 | 悬疑
◎简  介


  一位联邦观察局奸细和佛罗里达州官员联手观察一系列未侦破的谋杀案。
  1. Video
  2. ID                                       : 1
  3. ID in the original source medium         : 4113 (0x1011)
  4. Format                                   : AVC
  5. Format/Info                              : Advanced Video Codec
  6. Format profile                           : [email protected]
  7. Format settings                          : CABAC / 4 Ref Frames
  8. Format settings, CABAC                   : Yes
  9. Format settings, Reference frames        : 4 frames
  10. Codec ID                                 : V_MPEG4/ISO/AVC
  11. Duration                                 : 1 h 38 min
  12. Bit rate mode                            : Variable
  13. Bit rate                                 : 25.3 Mb/s
  14. Maximum bit rate                         : 37.0 Mb/s
  15. Width                                    : 1 920 pixels
  16. Height                                   : 1 080 pixels
  17. Display aspect ratio                     : 16:9
  18. Frame rate mode                          : Constant
  19. Frame rate                               : 23.976 (24000/1001/189150) FPS
  20. Color space                              : YUV
  21. Chroma subsampling                       : 4:2:0
  22. Bit depth                                : 8 bits
  23. Scan type                                : Progressive
  24. Bits/(Pixel*Frame)                       : 0.508
  25. Stream size                              : 17.4 GiB (87%)
  26. Language                                 : English
  27. Default                                  : No
  28. Forced                                   : No
  29. Original source medium                   : Blu-ray
  30. Audio #1
  31. ID                                       : 2
  32. ID in the original source medium         : 4352 (0x1100)
  33. Format                                   : DTS XLL
  34. Format/Info                              : Digital Theater Systems
  35. Commercial name                          : DTS-HD Master Audio
  36. Codec ID                                 : A_DTS
  37. Duration                                 : 1 h 38 min
  38. Bit rate mode                            : Variable
  39. Bit rate                                 : 3 662 kb/s
  40. Channel(s)                               : 6 channels
  41. Channel layout                           : C L R Ls Rs LFE
  42. Sampling rate                            : 48.0 kHz
  43. Frame rate                               : 93.750 FPS (512 SPF)
  44. Bit depth                                : 24 bits
  45. Compression mode                         : Lossless
  46. Stream size                              : 2.53 GiB (13%)
  47. Title                                    : DTS-HD MA 5.1
  48. Language                                 : English
  49. Default                                  : Yes
  50. Forced                                   : No
  51. Original source medium                   : Blu-ray
  52. Audio #2
  53. ID                                       : 3
  54. ID in the original source medium         : 4353 (0x1101)
  55. Format                                   : AC-3
  56. Format/Info                              : Audio Coding 3
  57. Commercial name                          : Dolby Digital
  58. Codec ID                                 : A_AC3
  59. Duration                                 : 1 h 38 min
  60. Bit rate mode                            : Constant
  61. Bit rate                                 : 192 kb/s
  62. Channel(s)                               : 2 channels
  63. Channel layout                           : L R
  64. Sampling rate                            : 48.0 kHz
  65. Frame rate                               : 31.250 FPS (1536 SPF)
  66. Compression mode                         : Lossy
  67. Stream size                              : 136 MiB (1%)
  68. Title                                    : DD 2.0
  69. Language                                 : English
  70. Service kind                             : Complete Main
  71. Default                                  : No
  72. Forced                                   : No
  73. Original source medium                   : Blu-ray
  74. Text #1
  75. ID                                       : 4
  76. Format                                   : UTF-8
  77. Codec ID                                 : S_TEXT/UTF8
  78. Codec ID/Info                            : UTF-8 Plain Text
  79. Duration                                 : 1 h 29 min
  80. Bit rate                                 : 50 b/s
  81. Count of elements                        : 1020
  82. Stream size                              : 32.6 KiB (0%)
  83. Title                                    : SRT
  84. Language                                 : English
  85. Default                                  : Yes
  86. Forced                                   : No
  87. Text #2
  88. ID                                       : 5
  89. ID in the original source medium         : 4608 (0x1200)
  90. Format                                   : PGS
  91. Muxing mode                              : zlib
  92. Codec ID                                 : S_HDMV/PGS
  93. Codec ID/Info                            : Picture based subtitle format used on BDs/HD-DVDs
  94. Duration                                 : 1 h 30 min
  95. Bit rate                                 : 35.2 kb/s
  96. Count of elements                        : 2402
  97. Stream size                              : 22.9 MiB (0%)
  98. Language                                 : English
  99. Default                                  : No
  100. Forced                                   : No
  101. Original source medium                   : Blu-ray
  102. Text #3
  103. ID                                       : 6
  104. ID in the original source medium         : 4609 (0x1201)
  105. Format                                   : PGS
  106. Muxing mode                              : zlib
  107. Codec ID                                 : S_HDMV/PGS
  108. Codec ID/Info                            : Picture based subtitle format used on BDs/HD-DVDs
  109. Duration                                 : 1 h 36 min
  110. Bit rate                                 : 27.2 kb/s
  111. Count of elements                        : 1910
  112. Stream size                              : 18.8 MiB (0%)
  113. Language                                 : Spanish
  114. Default                                  : No
  115. Forced                                   : No
  116. Original source medium                   : Blu-ray
  117. Menu
  118. 00:00:00.000                             : Chapter 01
  119. 00:06:15.875                             : Chapter 02
  120. 00:08:55.743                             : Chapter 03
  121. 00:16:05.881                             : Chapter 04
  122. 00:22:47.616                             : Chapter 05
  123. 00:31:44.485                             : Chapter 06
  124. 00:36:17.884                             : Chapter 07
  125. 00:41:29.320                             : Chapter 08
  126. 00:48:01.169                             : Chapter 09
  127. 00:53:08.685                             : Chapter 10
  128. 01:00:19.324                             : Chapter 11
  129. 01:04:29.615                             : Chapter 12
  130. 01:10:20.674                             : Chapter 13
  131. 01:18:24.116                             : Chapter 14
  132. 01:23:52.444                             : Chapter 15
  133. 01:29:51.969                             : Chapter 16
复制代码






                                       
                                       

                                       
                                       
                                       




回复

使用道具 举报

懒得打字嘛,点击右侧快捷回复 【右侧内容,后台自定义】
您需要登录后才可以回帖 登录 | 立即加入

本版积分规则

Archiver| |网站地图

Copyright © 2024 Comsenz Inc. Powered by 蓝光电影网

本站内容由用户自主分享和转载自互联网,转载目的在于传递更多信息,并不代表本网赞同其观点和对其真实性负责。

如有侵权、违反国家法律政策行为,请联系我们,我们会第一时间及时清除和处理!

举报反馈邮箱:4k1080.com@gmail.com

快速回复 返回顶部 返回列表