找回密码

查看: 2401|回复: 1

[喜剧] 悠长的假期 The.Exchange.Student.1967.FRENCH.1080p.BluRay.x264.FLAC.2.0-NOGRP 11.33GB

[复制链接]
蓝光币
2048
发表于 2020-12-9 09:05:57 | 显示全部楼层 |阅读模式


◎译  名 悠久的假期/The Big Vacation
◎片  名 Les Grandes vacances
◎年  代 1967
◎产  地 法国,意大利
◎类  别 笑剧
◎语  言 法语,英语
◎上映日期 1967-12-01
◎IMDb评分  6.6/10 from 2938 users
◎IMDb链接  https://www.imdb.com/title/tt0060475/
◎豆瓣评分 /10 from 0 users
◎豆瓣链接 https://movie.douban.com/subject/2269107/
◎片  长 84分钟
◎导  演 让·吉罗 Jean Girault
◎编  剧 让·吉罗 Jean Girault / 雅克·维尔弗里德 Jacques Vilfrid
◎主  演 路易·德·菲奈斯 Louis de Funès
       费迪·梅恩 Ferdy Mayne
       Martine Kelly
       奥利维亚·德·福内斯 Olivier De Funès
       Fran?ois Leccia
       马克斯·蒙塔旺 Max Montavon
       比利·卡恩斯 Billy Kearns
       居伊·格罗索 Guy Grosso
       克洛德·让萨克 Claude Gensac
       雅克·法梅里 Jacques Famery
       让·德罗兹 Jean Droze
       Dominique Marcas
       Sylvain Levignac
       Jean Minisini
       吕迪·勒努瓦 Rudy Lenoir
       Ivo Pauwels
       查尔斯·劳埃德·帕克 Charles Lloyd Pack
       丹尼丝·普罗旺斯 Denise Provence
       Christiane Muller
       莫里斯里什 Maurice Risch
       雅克·迪南 Jacques Dynam
       居伊·德洛姆 Guy Delorme
       贝尔纳·勒科克 Bernard Le Coq
       Colin Drake
       亨利·埃托 Henri Attal
       勒内·布洛克 René Bouloc
       安托万·博 Antoine Baud
       多米尼克·莫林 Dominique Maurin
       路易丝·舍瓦利耶 Louise Chevalier
       伯纳德·查兰 Bernard Charlan
       布莱恩·科伯恩 Brian Coburn
       Claude Carliez
       保罗·费弗尔 Paul Faivre
       马里奥·达维德 Mario David
       西尔维娅·迪奥尼西奥 Silvia Dionisio
       多米妮克·达夫雷 Dominique Davray
◎标  签 笑剧 | 法国电影 | 1967 | 法国 | 路易·德·菲耐斯 | 路易·德·菲耐斯|Louis_de_Funès | 法国笑剧 | 法國
◎简  介


  博斯基埃师长的儿子菲利浦高考落榜了,博斯基埃师长因而决议送他去英国进修(注:由于菲利浦高考落榜的部分缘由是英语没有过)。作为交换,他要接待苏格兰威士忌酿酒商马克·法雷尔的女儿雪莉。但是,菲利浦更喜好留在法国家假,并让他的朋友密歇内取代他去英国。
  1. Video
  2. ID                                       : 1
  3. Format                                   : AVC
  4. Format/Info                              : Advanced Video Codec
  5. Format profile                           : [email protected]
  6. Format settings                          : CABAC / 5 Ref Frames
  7. Format settings, CABAC                   : Yes
  8. Format settings, Reference frames        : 5 frames
  9. Codec ID                                 : V_MPEG4/ISO/AVC
  10. Duration                                 : 1 h 29 min
  11. Bit rate                                 : 17.7 Mb/s
  12. Width                                    : 1 920 pixels
  13. Height                                   : 816 pixels
  14. Display aspect ratio                     : 2.35:1
  15. Frame rate mode                          : Constant
  16. Frame rate                               : 24.000 FPS
  17. Color space                              : YUV
  18. Chroma subsampling                       : 4:2:0
  19. Bit depth                                : 8 bits
  20. Scan type                                : Progressive
  21. Bits/(Pixel*Frame)                       : 0.470
  22. Stream size                              : 11.1 GiB (98%)
  23. Writing library                          : x264 core 155 r2901 7d0ff22
  24. Encoding settings                        : cabac=1 / ref=5 / deblock=1:-3:-3 / analyse=0x3:0x133 / me=umh / subme=10 / psy=1 / psy_rd=1.00:0.00 / mixed_ref=1 / me_range=32 / chroma_me=1 / trellis=2 / 8x8dct=1 / cqm=0 / deadzone=21,11 / fast_pskip=0 / chroma_qp_offset=-2 / threads=4 / lookahead_threads=1 / sliced_threads=0 / nr=0 / decimate=0 / interlaced=0 / bluray_compat=0 / constrained_intra=0 / bframes=16 / b_pyramid=2 / b_adapt=2 / b_bias=0 / direct=3 / weightb=1 / open_gop=0 / weightp=1 / keyint=240 / keyint_min=24 / scenecut=40 / intra_refresh=0 / rc_lookahead=60 / rc=2pass / mbtree=0 / bitrate=17685 / ratetol=1.0 / qcomp=0.60 / qpmin=0 / qpmax=69 / qpstep=4 / cplxblur=20.0 / qblur=0.5 / vbv_maxrate=62500 / vbv_bufsize=78125 / nal_hrd=none / filler=0 / ip_ratio=1.40 / pb_ratio=1.30 / aq=2:1.00
  25. Default                                  : Yes
  26. Forced                                   : No
  27. Color range                              : Limited
  28. Color primaries                          : BT.709
  29. Transfer characteristics                 : BT.709
  30. Matrix coefficients                      : BT.709
  31. Audio
  32. ID                                       : 2
  33. Format                                   : FLAC
  34. Format/Info                              : Free Lossless Audio Codec
  35. Codec ID                                 : A_FLAC
  36. Duration                                 : 1 h 29 min
  37. Bit rate mode                            : Variable
  38. Bit rate                                 : 331 kb/s
  39. Channel(s)                               : 2 channels
  40. Channel layout                           : L R
  41. Sampling rate                            : 48.0 kHz
  42. Frame rate                               : 11.719 FPS (4096 SPF)
  43. Bit depth                                : 16 bits
  44. Compression mode                         : Lossless
  45. Stream size                              : 213 MiB (2%)
  46. Title                                    : Stereo
  47. Language                                 : French
  48. Default                                  : Yes
  49. Forced                                   : No
  50. Text #1
  51. ID                                       : 3
  52. Format                                   : UTF-8
  53. Codec ID                                 : S_TEXT/UTF8
  54. Codec ID/Info                            : UTF-8 Plain Text
  55. Duration                                 : 1 h 29 min
  56. Bit rate                                 : 36 b/s
  57. Count of elements                        : 617
  58. Stream size                              : 23.7 KiB (0%)
  59. Title                                    : SRT
  60. Language                                 : English
  61. Default                                  : Yes
  62. Forced                                   : No
  63. Text #2
  64. ID                                       : 4
  65. Format                                   : ASS
  66. Codec ID                                 : S_TEXT/ASS
  67. Codec ID/Info                            : Advanced Sub Station Alpha
  68. Duration                                 : 1 h 29 min
  69. Bit rate                                 : 56 b/s
  70. Count of elements                        : 617
  71. Compression mode                         : Lossless
  72. Stream size                              : 36.8 KiB (0%)
  73. Language                                 : English
  74. Default                                  : No
  75. Forced                                   : No
  76. Text #3
  77. ID                                       : 5
  78. Format                                   : PGS
  79. Muxing mode                              : zlib
  80. Codec ID                                 : S_HDMV/PGS
  81. Codec ID/Info                            : Picture based subtitle format used on BDs/HD-DVDs
  82. Duration                                 : 1 h 25 min
  83. Bit rate                                 : 1 788 b/s
  84. Count of elements                        : 134
  85. Stream size                              : 1.09 MiB (0%)
  86. Language                                 : French
  87. Default                                  : No
  88. Forced                                   : No
  89. Text #4
  90. ID                                       : 6
  91. Format                                   : PGS
  92. Muxing mode                              : zlib
  93. Codec ID                                 : S_HDMV/PGS
  94. Codec ID/Info                            : Picture based subtitle format used on BDs/HD-DVDs
  95. Duration                                 : 1 h 27 min
  96. Bit rate                                 : 28.4 kb/s
  97. Count of elements                        : 1854
  98. Stream size                              : 17.7 MiB (0%)
  99. Language                                 : German
  100. Default                                  : No
  101. Forced                                   : No
  102. Text #5
  103. ID                                       : 7
  104. Format                                   : ASS
  105. Codec ID                                 : S_TEXT/ASS
  106. Codec ID/Info                            : Advanced Sub Station Alpha
  107. Duration                                 : 1 h 26 min
  108. Bit rate                                 : 80 b/s
  109. Count of elements                        : 926
  110. Compression mode                         : Lossless
  111. Stream size                              : 51.1 KiB (0%)
  112. Language                                 : German
  113. Default                                  : No
  114. Forced                                   : No
  115. Text #6
  116. ID                                       : 8
  117. Format                                   : ASS
  118. Codec ID                                 : S_TEXT/ASS
  119. Codec ID/Info                            : Advanced Sub Station Alpha
  120. Duration                                 : 1 h 26 min
  121. Bit rate                                 : 96 b/s
  122. Count of elements                        : 1089
  123. Compression mode                         : Lossless
  124. Stream size                              : 61.5 KiB (0%)
  125. Language                                 : Italian
  126. Default                                  : No
  127. Forced                                   : No
  128. Text #7
  129. ID                                       : 9
  130. Format                                   : ASS
  131. Codec ID                                 : S_TEXT/ASS
  132. Codec ID/Info                            : Advanced Sub Station Alpha
  133. Duration                                 : 1 h 26 min
  134. Bit rate                                 : 70 b/s
  135. Count of elements                        : 759
  136. Compression mode                         : Lossless
  137. Stream size                              : 44.8 KiB (0%)
  138. Language                                 : Norwegian
  139. Default                                  : No
  140. Forced                                   : No
  141. Text #8
  142. ID                                       : 10
  143. Format                                   : ASS
  144. Codec ID                                 : S_TEXT/ASS
  145. Codec ID/Info                            : Advanced Sub Station Alpha
  146. Duration                                 : 1 h 26 min
  147. Bit rate                                 : 61 b/s
  148. Count of elements                        : 614
  149. Compression mode                         : Lossless
  150. Stream size                              : 39.4 KiB (0%)
  151. Language                                 : Portuguese
  152. Default                                  : No
  153. Forced                                   : No
  154. Text #9
  155. ID                                       : 11
  156. Format                                   : ASS
  157. Codec ID                                 : S_TEXT/ASS
  158. Codec ID/Info                            : Advanced Sub Station Alpha
  159. Duration                                 : 1 h 27 min
  160. Bit rate                                 : 66 b/s
  161. Count of elements                        : 719
  162. Compression mode                         : Lossless
  163. Stream size                              : 42.6 KiB (0%)
  164. Language                                 : Romanian
  165. Default                                  : No
  166. Forced                                   : No
  167. Text #10
  168. ID                                       : 12
  169. Format                                   : ASS
  170. Codec ID                                 : S_TEXT/ASS
  171. Codec ID/Info                            : Advanced Sub Station Alpha
  172. Duration                                 : 1 h 27 min
  173. Bit rate                                 : 57 b/s
  174. Count of elements                        : 603
  175. Compression mode                         : Lossless
  176. Stream size                              : 36.9 KiB (0%)
  177. Language                                 : Spanish
  178. Default                                  : No
  179. Forced                                   : No
  180. Menu
  181. 00:00:00.000                             : :Chapter 1
  182. 00:08:21.542                             : :Chapter 2
  183. 00:15:07.417                             : :Chapter 3
  184. 00:21:12.042                             : :Chapter 4
  185. 00:28:59.250                             : :Chapter 5
  186. 00:35:36.750                             : :Chapter 6
  187. 00:41:44.833                             : :Chapter 7
  188. 00:49:13.875                             : :Chapter 8
  189. 00:57:13.083                             : :Chapter 9
  190. 01:03:25.792                             : :Chapter 10
  191. 01:10:17.125                             : :Chapter 11
  192. 01:18:05.375                             : :Chapter 12
复制代码



                                       
                                       

                                       
                                       
                                       




回复

使用道具 举报

蓝光币
206
发表于 2021-9-4 11:53:05 | 显示全部楼层

楼主太厉害了!楼主,电影应该很好看我觉得蓝光电影网真是个好地方!
回复

使用道具 举报

懒得打字嘛,点击右侧快捷回复 【右侧内容,后台自定义】
您需要登录后才可以回帖 登录 | 立即加入

本版积分规则

Archiver| |网站地图

Copyright © 2024 Comsenz Inc. Powered by 蓝光电影网

本站内容由用户自主分享和转载自互联网,转载目的在于传递更多信息,并不代表本网赞同其观点和对其真实性负责。

如有侵权、违反国家法律政策行为,请联系我们,我们会第一时间及时清除和处理!

举报反馈邮箱:4k1080.com@gmail.com

快速回复 返回顶部 返回列表