找回密码

查看: 1865|回复: 0

[剧情] 巨鳄风暴/噬逃险鳄 Crawl.2019.1080p.BluRay.REMUX.AVC.DTS-HD.MA.7.1-FGT 23.10GB

[复制链接]
蓝光币
2039
发表于 2019-10-12 02:35:08 | 显示全部楼层 |阅读模式


◎译  名 巨鳄风暴 / 噬逃险鳄(港) / 匍匐 / 鳄魔(台)
◎片  名 Crawl
◎年  代 2019
◎产  地 美国
◎类  别 剧情 / 惊悚 / 灾难
◎语  言 英语
◎上映日期 2019-07-12(美国) / 2019-09-12(中国大陆)
◎IMDb评分  6.5/10 from 15557 users
◎IMDb链接  http://www.imdb.com/title/tt8364368
◎豆瓣评分 5.9/10 from 19319 users
◎豆瓣链接 https://movie.douban.com/subject/30210700/
◎片  长 87分钟
◎导  演 亚历山大·阿嘉 Alexandre Aja
◎编  剧 迈克尔·拉斯姆森 Michael Rasmussen / 肖恩·拉斯姆森 Shawn Rasmussen
◎主  演 卡雅·斯考达里奥 Kaya Scodelario
       巴里·佩珀 Barry Pepper
       罗斯·安德森 Ross Anderson
       安森·布恩 Anson Boon
       乔治·索纳 George Somner
       阿米?梅特卡夫 Ami Metcalf
       何塞?帕尔马 Jose Palma
       莫菲德·克拉克 Morfydd Clark
       安娜玛丽亚·塞尔达 Annamaria Serda
       萨凡纳·斯泰恩 Savannah Steyn
       乔瓦娜·德拉加 Jovana Dragas
       柯林·麦克法兰 Colin McFarlane
       蒂娜?普里比切维奇 Tina Pribicevic

◎标  签 惊悚 | 灾难 | 鳄鱼 | 美国 | 可骇 | 血腥 | 2019 | 怪兽
◎简  介  
  一场狠恶的飓风正在逼近美国佛罗里达州的一座小镇。女配角海莉(卡雅·斯考达里奥饰)在泅水练习中接到了姐姐的电话,他们的父亲(巴里·佩珀饰)已经失联多时,她很是担忧父亲的安危。海莉掉臂撤离号令单独前往父亲家中,并终极在地下室里找到了身受重伤的父亲。大水暴涨眼看就要将地下室沉没,海莉很快就意想到最可怕的并不是大水,而是隐藏在水中的致命猛兽--鳄鱼。
  1. Video
  2. ID                                       : 1
  3. Format                                   : AVC
  4. Format/Info                              : Advanced Video Codec
  5. Format profile                           : [email protected]
  6. Format settings                          : CABAC / 4 Ref Frames
  7. Format settings, CABAC                   : Yes
  8. Format settings, Reference frames        : 4 frames
  9. Codec ID                                 : V_MPEG4/ISO/AVC
  10. Duration                                 : 1 h 27 min
  11. Bit rate mode                            : Variable
  12. Bit rate                                 : 29.0 Mb/s
  13. Maximum bit rate                         : 32.3 Mb/s
  14. Width                                    : 1 920 pixels
  15. Height                                   : 1 080 pixels
  16. Display aspect ratio                     : 16:9
  17. Frame rate mode                          : Constant
  18. Frame rate                               : 23.976 (24000/1001) FPS
  19. Color space                              : YUV
  20. Chroma subsampling                       : 4:2:0
  21. Bit depth                                : 8 bits
  22. Scan type                                : Progressive
  23. Bits/(Pixel*Frame)                       : 0.583
  24. Stream size                              : 17.7 GiB (77%)
  25. Title                                    : Crawl.2019.1080p.BluRay.REMUX.AVC.DTS-HD.MA.7.1-FGT
  26. Language                                 : English
  27. Default                                  : No
  28. Forced                                   : No
  29. Audio #1
  30. ID                                       : 2
  31. Format                                   : DTS XLL
  32. Format/Info                              : Digital Theater Systems
  33. Commercial name                          : DTS-HD Master Audio
  34. Codec ID                                 : A_DTS
  35. Duration                                 : 1 h 27 min
  36. Bit rate mode                            : Variable
  37. Bit rate                                 : 4 860 kb/s
  38. Channel(s)                               : 8 channels
  39. Channel layout                           : C L R LFE Lb Rb Lss Rss
  40. Sampling rate                            : 48.0 kHz
  41. Frame rate                               : 93.750 FPS (512 SPF)
  42. Bit depth                                : 24 bits
  43. Compression mode                         : Lossless
  44. Stream size                              : 2.97 GiB (13%)
  45. Title                                    : Crawl.2019.1080p.BluRay.REMUX.AVC.DTS-HD.MA.7.1-FGT
  46. Language                                 : English
  47. Default                                  : Yes
  48. Forced                                   : No
  49. Audio #2
  50. ID                                       : 3
  51. Format                                   : AC-3
  52. Format/Info                              : Audio Coding 3
  53. Commercial name                          : Dolby Digital
  54. Codec ID                                 : A_AC3
  55. Duration                                 : 1 h 27 min
  56. Bit rate mode                            : Constant
  57. Bit rate                                 : 640 kb/s
  58. Channel(s)                               : 6 channels
  59. Channel layout                           : L R C LFE Ls Rs
  60. Sampling rate                            : 48.0 kHz
  61. Frame rate                               : 31.250 FPS (1536 SPF)
  62. Bit depth                                : 16 bits
  63. Compression mode                         : Lossy
  64. Stream size                              : 401 MiB (2%)
  65. Title                                    : Crawl.2019.1080p.BluRay.REMUX.AVC.DTS-HD.MA.7.1-FGT
  66. Language                                 : English
  67. Service kind                             : Complete Main
  68. Default                                  : No
  69. Forced                                   : No
  70. Audio #3
  71. ID                                       : 4
  72. Format                                   : AC-3
  73. Format/Info                              : Audio Coding 3
  74. Commercial name                          : Dolby Digital
  75. Codec ID                                 : A_AC3
  76. Duration                                 : 1 h 27 min
  77. Bit rate mode                            : Constant
  78. Bit rate                                 : 640 kb/s
  79. Channel(s)                               : 6 channels
  80. Channel layout                           : L R C LFE Ls Rs
  81. Sampling rate                            : 48.0 kHz
  82. Frame rate                               : 31.250 FPS (1536 SPF)
  83. Bit depth                                : 16 bits
  84. Compression mode                         : Lossy
  85. Stream size                              : 401 MiB (2%)
  86. Title                                    : Crawl.2019.1080p.BluRay.REMUX.AVC.DTS-HD.MA.7.1-FGT
  87. Language                                 : Spanish
  88. Service kind                             : Complete Main
  89. Default                                  : No
  90. Forced                                   : No
  91. Audio #4
  92. ID                                       : 5
  93. Format                                   : AC-3
  94. Format/Info                              : Audio Coding 3
  95. Commercial name                          : Dolby Digital
  96. Codec ID                                 : A_AC3
  97. Duration                                 : 1 h 27 min
  98. Bit rate mode                            : Constant
  99. Bit rate                                 : 640 kb/s
  100. Channel(s)                               : 6 channels
  101. Channel layout                           : L R C LFE Ls Rs
  102. Sampling rate                            : 48.0 kHz
  103. Frame rate                               : 31.250 FPS (1536 SPF)
  104. Bit depth                                : 16 bits
  105. Compression mode                         : Lossy
  106. Stream size                              : 401 MiB (2%)
  107. Title                                    : Crawl.2019.1080p.BluRay.REMUX.AVC.DTS-HD.MA.7.1-FGT
  108. Language                                 : French
  109. Service kind                             : Complete Main
  110. Default                                  : No
  111. Forced                                   : No
  112. Audio #5
  113. ID                                       : 6
  114. Format                                   : AC-3
  115. Format/Info                              : Audio Coding 3
  116. Commercial name                          : Dolby Digital
  117. Codec ID                                 : A_AC3
  118. Duration                                 : 1 h 27 min
  119. Bit rate mode                            : Constant
  120. Bit rate                                 : 640 kb/s
  121. Channel(s)                               : 6 channels
  122. Channel layout                           : L R C LFE Ls Rs
  123. Sampling rate                            : 48.0 kHz
  124. Frame rate                               : 31.250 FPS (1536 SPF)
  125. Bit depth                                : 16 bits
  126. Compression mode                         : Lossy
  127. Stream size                              : 401 MiB (2%)
  128. Title                                    : Crawl.2019.1080p.BluRay.REMUX.AVC.DTS-HD.MA.7.1-FGT
  129. Language                                 : Japanese
  130. Service kind                             : Complete Main
  131. Default                                  : No
  132. Forced                                   : No
  133. Audio #6
  134. ID                                       : 7
  135. Format                                   : AC-3
  136. Format/Info                              : Audio Coding 3
  137. Commercial name                          : Dolby Digital
  138. Codec ID                                 : A_AC3
  139. Duration                                 : 1 h 27 min
  140. Bit rate mode                            : Constant
  141. Bit rate                                 : 640 kb/s
  142. Channel(s)                               : 6 channels
  143. Channel layout                           : L R C LFE Ls Rs
  144. Sampling rate                            : 48.0 kHz
  145. Frame rate                               : 31.250 FPS (1536 SPF)
  146. Bit depth                                : 16 bits
  147. Compression mode                         : Lossy
  148. Stream size                              : 401 MiB (2%)
  149. Title                                    : Crawl.2019.1080p.BluRay.REMUX.AVC.DTS-HD.MA.7.1-FGT
  150. Language                                 : Portuguese
  151. Service kind                             : Complete Main
  152. Default                                  : No
  153. Forced                                   : No
  154. Audio #7
  155. ID                                       : 8
  156. Format                                   : AC-3
  157. Format/Info                              : Audio Coding 3
  158. Commercial name                          : Dolby Digital
  159. Codec ID                                 : A_AC3
  160. Duration                                 : 1 h 27 min
  161. Bit rate mode                            : Constant
  162. Bit rate                                 : 640 kb/s
  163. Channel(s)                               : 6 channels
  164. Channel layout                           : L R C LFE Ls Rs
  165. Sampling rate                            : 48.0 kHz
  166. Frame rate                               : 31.250 FPS (1536 SPF)
  167. Bit depth                                : 16 bits
  168. Compression mode                         : Lossy
  169. Stream size                              : 401 MiB (2%)
  170. Title                                    : Crawl.2019.1080p.BluRay.REMUX.AVC.DTS-HD.MA.7.1-FGT
  171. Language                                 : Thai
  172. Service kind                             : Complete Main
  173. Default                                  : No
  174. Forced                                   : No
  175. Text #1
  176. ID                                       : 9
  177. Format                                   : UTF-8
  178. Codec ID                                 : S_TEXT/UTF8
  179. Codec ID/Info                            : UTF-8 Plain Text
  180. Duration                                 : 1 h 19 min
  181. Bit rate                                 : 25 b/s
  182. Count of elements                        : 604
  183. Stream size                              : 14.9 KiB (0%)
  184. Title                                    : English-SRT
  185. Language                                 : English
  186. Default                                  : Yes
  187. Forced                                   : No
  188. Text #2
  189. ID                                       : 10
  190. Format                                   : PGS
  191. Muxing mode                              : zlib
  192. Codec ID                                 : S_HDMV/PGS
  193. Codec ID/Info                            : Picture based subtitle format used on BDs/HD-DVDs
  194. Duration                                 : 1 h 16 min
  195. Bit rate                                 : 18.9 kb/s
  196. Count of elements                        : 1134
  197. Stream size                              : 10.4 MiB (0%)
  198. Title                                    : English-PGS
  199. Language                                 : English
  200. Default                                  : No
  201. Forced                                   : No
  202. Text #3
  203. ID                                       : 11
  204. Format                                   : PGS
  205. Muxing mode                              : zlib
  206. Codec ID                                 : S_HDMV/PGS
  207. Codec ID/Info                            : Picture based subtitle format used on BDs/HD-DVDs
  208. Duration                                 : 1 h 24 min
  209. Bit rate                                 : 19.7 kb/s
  210. Count of elements                        : 1156
  211. Stream size                              : 12.0 MiB (0%)
  212. Title                                    : Malay-PGS
  213. Language                                 : Malay
  214. Default                                  : No
  215. Forced                                   : No
  216. Text #4
  217. ID                                       : 12
  218. Format                                   : PGS
  219. Muxing mode                              : zlib
  220. Codec ID                                 : S_HDMV/PGS
  221. Codec ID/Info                            : Picture based subtitle format used on BDs/HD-DVDs
  222. Duration                                 : 1 h 26 min
  223. Bit rate                                 : 13.6 kb/s
  224. Count of elements                        : 1162
  225. Stream size                              : 8.44 MiB (0%)
  226. Title                                    : Chinese-PGS
  227. Language                                 : Chinese
  228. Default                                  : No
  229. Forced                                   : No
  230. Text #5
  231. ID                                       : 13
  232. Format                                   : PGS
  233. Muxing mode                              : zlib
  234. Codec ID                                 : S_HDMV/PGS
  235. Codec ID/Info                            : Picture based subtitle format used on BDs/HD-DVDs
  236. Duration                                 : 1 h 26 min
  237. Bit rate                                 : 16.2 kb/s
  238. Count of elements                        : 1162
  239. Stream size                              : 10.1 MiB (0%)
  240. Title                                    : Spanish-PGS
  241. Language                                 : Spanish
  242. Default                                  : No
  243. Forced                                   : No
  244. Text #6
  245. ID                                       : 14
  246. Format                                   : PGS
  247. Muxing mode                              : zlib
  248. Codec ID                                 : S_HDMV/PGS
  249. Codec ID/Info                            : Picture based subtitle format used on BDs/HD-DVDs
  250. Duration                                 : 1 h 26 min
  251. Bit rate                                 : 373 b/s
  252. Count of elements                        : 20
  253. Stream size                              : 237 KiB (0%)
  254. Title                                    : Spanish-FORCED-PGS
  255. Language                                 : Spanish
  256. Default                                  : No
  257. Forced                                   : No
  258. Text #7
  259. ID                                       : 15
  260. Format                                   : PGS
  261. Muxing mode                              : zlib
  262. Codec ID                                 : S_HDMV/PGS
  263. Codec ID/Info                            : Picture based subtitle format used on BDs/HD-DVDs
  264. Duration                                 : 1 h 26 min
  265. Bit rate                                 : 18.5 kb/s
  266. Count of elements                        : 1158
  267. Stream size                              : 11.4 MiB (0%)
  268. Title                                    : French-PGS
  269. Language                                 : French
  270. Default                                  : No
  271. Forced                                   : No
  272. Text #8
  273. ID                                       : 16
  274. Format                                   : PGS
  275. Muxing mode                              : zlib
  276. Codec ID                                 : S_HDMV/PGS
  277. Codec ID/Info                            : Picture based subtitle format used on BDs/HD-DVDs
  278. Duration                                 : 1 h 26 min
  279. Bit rate                                 : 362 b/s
  280. Count of elements                        : 20
  281. Stream size                              : 230 KiB (0%)
  282. Title                                    : French-FORCED-PGS
  283. Language                                 : French
  284. Default                                  : No
  285. Forced                                   : No
  286. Text #9
  287. ID                                       : 17
  288. Format                                   : PGS
  289. Muxing mode                              : zlib
  290. Codec ID                                 : S_HDMV/PGS
  291. Codec ID/Info                            : Picture based subtitle format used on BDs/HD-DVDs
  292. Duration                                 : 1 h 26 min
  293. Bit rate                                 : 14.5 kb/s
  294. Count of elements                        : 1160
  295. Stream size                              : 8.98 MiB (0%)
  296. Title                                    : HIndi-PGS
  297. Language                                 : Hindi
  298. Default                                  : No
  299. Forced                                   : No
  300. Text #10
  301. ID                                       : 18
  302. Format                                   : PGS
  303. Muxing mode                              : zlib
  304. Codec ID                                 : S_HDMV/PGS
  305. Codec ID/Info                            : Picture based subtitle format used on BDs/HD-DVDs
  306. Duration                                 : 1 h 18 min
  307. Bit rate                                 : 11.7 kb/s
  308. Count of elements                        : 1104
  309. Stream size                              : 6.57 MiB (0%)
  310. Title                                    : Japanese-PGS
  311. Language                                 : Japanese
  312. Default                                  : No
  313. Forced                                   : No
  314. Text #11
  315. ID                                       : 19
  316. Format                                   : PGS
  317. Muxing mode                              : zlib
  318. Codec ID                                 : S_HDMV/PGS
  319. Codec ID/Info                            : Picture based subtitle format used on BDs/HD-DVDs
  320. Duration                                 : 1 h 26 min
  321. Bit rate                                 : 13.3 kb/s
  322. Count of elements                        : 1162
  323. Stream size                              : 8.27 MiB (0%)
  324. Title                                    : Korean-PGS
  325. Language                                 : Korean
  326. Default                                  : No
  327. Forced                                   : No
  328. Text #12
  329. ID                                       : 20
  330. Format                                   : PGS
  331. Muxing mode                              : zlib
  332. Codec ID                                 : S_HDMV/PGS
  333. Codec ID/Info                            : Picture based subtitle format used on BDs/HD-DVDs
  334. Duration                                 : 1 h 26 min
  335. Bit rate                                 : 13.3 kb/s
  336. Count of elements                        : 1162
  337. Stream size                              : 8.26 MiB (0%)
  338. Title                                    : Chinese-PGS
  339. Language                                 : Chinese
  340. Default                                  : No
  341. Forced                                   : No
  342. Text #13
  343. ID                                       : 21
  344. Format                                   : PGS
  345. Muxing mode                              : zlib
  346. Codec ID                                 : S_HDMV/PGS
  347. Codec ID/Info                            : Picture based subtitle format used on BDs/HD-DVDs
  348. Duration                                 : 1 h 26 min
  349. Bit rate                                 : 15.3 kb/s
  350. Count of elements                        : 1156
  351. Stream size                              : 9.49 MiB (0%)
  352. Title                                    : Portuguese-PGS
  353. Language                                 : Portuguese
  354. Default                                  : No
  355. Forced                                   : No
  356. Text #14
  357. ID                                       : 22
  358. Format                                   : PGS
  359. Muxing mode                              : zlib
  360. Codec ID                                 : S_HDMV/PGS
  361. Codec ID/Info                            : Picture based subtitle format used on BDs/HD-DVDs
  362. Duration                                 : 1 h 26 min
  363. Bit rate                                 : 388 b/s
  364. Count of elements                        : 22
  365. Stream size                              : 246 KiB (0%)
  366. Title                                    : Portuguese-FORCED-PGS
  367. Language                                 : Portuguese
  368. Default                                  : No
  369. Forced                                   : No
  370. Text #15
  371. ID                                       : 23
  372. Format                                   : PGS
  373. Muxing mode                              : zlib
  374. Codec ID                                 : S_HDMV/PGS
  375. Codec ID/Info                            : Picture based subtitle format used on BDs/HD-DVDs
  376. Duration                                 : 1 h 26 min
  377. Bit rate                                 : 12.2 kb/s
  378. Count of elements                        : 1162
  379. Stream size                              : 7.59 MiB (0%)
  380. Title                                    : Thai-PGS
  381. Language                                 : Thai
  382. Default                                  : No
  383. Forced                                   : No
  384. Text #16
  385. ID                                       : 24
  386. Format                                   : PGS
  387. Muxing mode                              : zlib
  388. Codec ID                                 : S_HDMV/PGS
  389. Codec ID/Info                            : Picture based subtitle format used on BDs/HD-DVDs
  390. Duration                                 : 1 h 21 min
  391. Bit rate                                 : 206 b/s
  392. Count of elements                        : 18
  393. Stream size                              : 124 KiB (0%)
  394. Title                                    : Thai-FORCED-PGS
  395. Language                                 : Thai
  396. Default                                  : No
  397. Forced                                   : No
  398. Text #17
  399. ID                                       : 25
  400. Format                                   : PGS
  401. Muxing mode                              : zlib
  402. Codec ID                                 : S_HDMV/PGS
  403. Codec ID/Info                            : Picture based subtitle format used on BDs/HD-DVDs
  404. Duration                                 : 1 h 24 min
  405. Bit rate                                 : 23.3 kb/s
  406. Count of elements                        : 1670
  407. Stream size                              : 14.1 MiB (0%)
  408. Title                                    : English-FORCED-PGS
  409. Language                                 : English
  410. Default                                  : No
  411. Forced                                   : No
  412. Text #18
  413. ID                                       : 26
  414. Format                                   : PGS
  415. Muxing mode                              : zlib
  416. Codec ID                                 : S_HDMV/PGS
  417. Codec ID/Info                            : Picture based subtitle format used on BDs/HD-DVDs
  418. Duration                                 : 1 h 2 min
  419. Bit rate                                 : 388 b/s
  420. Count of elements                        : 26
  421. Stream size                              : 177 KiB (0%)
  422. Title                                    : Japanese-FORCED-PGS
  423. Language                                 : Japanese
  424. Default                                  : No
  425. Forced                                   : No
  426. Menu
  427. 00:00:00.000                             : en:Chapter 01
  428. 00:07:51.804                             : en:Chapter 02
  429. 00:15:16.290                             : en:Chapter 03
  430. 00:22:15.459                             : en:Chapter 04
  431. 00:34:42.997                             : en:Chapter 05
  432. 00:42:15.282                             : en:Chapter 06
  433. 00:50:13.218                             : en:Chapter 07
  434. 00:57:13.221                             : en:Chapter 08
  435. 01:03:51.619                             : en:Chapter 09
  436. 01:08:56.298                             : en:Chapter 10
  437. 01:16:36.425                             : en:Chapter 11
  438. 01:23:10.610                             : en:Chapter 12
复制代码






                                       
                                       

                                       
                                       
                                       




回复

使用道具 举报

懒得打字嘛,点击右侧快捷回复 【右侧内容,后台自定义】
您需要登录后才可以回帖 登录 | 立即加入

本版积分规则

Archiver| |网站地图

Copyright © 2024 Comsenz Inc. Powered by 蓝光电影网

本站内容由用户自主分享和转载自互联网,转载目的在于传递更多信息,并不代表本网赞同其观点和对其真实性负责。

如有侵权、违反国家法律政策行为,请联系我们,我们会第一时间及时清除和处理!

举报反馈邮箱:4k1080.com@gmail.com

快速回复 返回顶部 返回列表