找回密码

查看: 1767|回复: 0

[剧情] 你永远不懂女人 You.Never.Know.Women.1926.1080p.BluRay.REMUX.AVC.DTS-HD.MA.2.0-FGT 19.13GB

[复制链接]
蓝光币
2048
发表于 2019-10-11 02:45:10 | 显示全部楼层 |阅读模式


◎译  名 你永久不懂女人
◎片  名 You Never Know Women
◎年  代 1926
◎产  地 美国
◎类  别 剧情
◎上映日期 1926-09-20(美国)
◎IMDb评分  6.9/10 from 64 users
◎IMDb链接  http://www.imdb.com/title/tt0017584
◎豆瓣评分 0/10 from 0 users
◎豆瓣链接 https://movie.douban.com/subject/6893064/
◎片  长 60分钟
◎导  演 William A. Wellman
◎编  剧 本杰明·格雷泽 Benjamin Glazer / 欧内斯特·沃伊道 Ernest Vajda
◎主  演 Florence Vidor
       洛威·舍曼 Lowell Sherman
       克里夫·布洛克 Clive Brook

◎标  签 默片 | 美国 | 1920s
◎简  介  
  暂无相关剧情先容
  1. Video
  2. ID                                       : 1
  3. Format                                   : AVC
  4. Format/Info                              : Advanced Video Codec
  5. Format profile                           : [email protected]
  6. Format settings                          : CABAC / 4 Ref Frames
  7. Format settings, CABAC                   : Yes
  8. Format settings, Reference frames        : 4 frames
  9. Codec ID                                 : V_MPEG4/ISO/AVC
  10. Duration                                 : 1 h 11 min
  11. Bit rate mode                            : Variable
  12. Bit rate                                 : 34.6 Mb/s
  13. Maximum bit rate                         : 38.0 Mb/s
  14. Width                                    : 1 920 pixels
  15. Height                                   : 1 080 pixels
  16. Display aspect ratio                     : 16:9
  17. Frame rate mode                          : Constant
  18. Frame rate                               : 23.976 (24000/1001) FPS
  19. Color space                              : YUV
  20. Chroma subsampling                       : 4:2:0
  21. Bit depth                                : 8 bits
  22. Scan type                                : Progressive
  23. Bits/(Pixel*Frame)                       : 0.696
  24. Stream size                              : 17.3 GiB (91%)
  25. Title                                    : You.Never.Know.Women.1926.1080p.BluRay.REMUX.AVC.DTS-HD.MA.2.0-FGT
  26. Language                                 : English
  27. Default                                  : No
  28. Forced                                   : No
  29. Audio #1
  30. ID                                       : 2
  31. Format                                   : DTS XLL
  32. Format/Info                              : Digital Theater Systems
  33. Commercial name                          : DTS-HD Master Audio
  34. Codec ID                                 : A_DTS
  35. Duration                                 : 1 h 11 min
  36. Bit rate mode                            : Variable
  37. Bit rate                                 : 1 583 kb/s
  38. Channel(s)                               : 2 channels
  39. Channel layout                           : L R
  40. Sampling rate                            : 48.0 kHz
  41. Frame rate                               : 93.750 FPS (512 SPF)
  42. Bit depth                                : 24 bits
  43. Compression mode                         : Lossless
  44. Stream size                              : 812 MiB (4%)
  45. Title                                    : You.Never.Know.Women.1926.1080p.BluRay.REMUX.AVC.DTS-HD.MA.2.0-FGT
  46. Language                                 : English
  47. Default                                  : Yes
  48. Forced                                   : No
  49. Audio #2
  50. ID                                       : 3
  51. Format                                   : DTS XLL
  52. Format/Info                              : Digital Theater Systems
  53. Commercial name                          : DTS-HD Master Audio
  54. Codec ID                                 : A_DTS
  55. Duration                                 : 1 h 11 min
  56. Bit rate mode                            : Variable
  57. Bit rate                                 : 1 993 kb/s
  58. Channel(s)                               : 2 channels
  59. Channel layout                           : L R
  60. Sampling rate                            : 48.0 kHz
  61. Frame rate                               : 93.750 FPS (512 SPF)
  62. Bit depth                                : 24 bits
  63. Compression mode                         : Lossless
  64. Stream size                              : 1 022 MiB (5%)
  65. Title                                    : You.Never.Know.Women.1926.1080p.BluRay.REMUX.AVC.DTS-HD.MA.2.0-FGT
  66. Language                                 : English
  67. Default                                  : No
  68. Forced                                   : No
  69. Menu
  70. 00:00:00.000                             : en:Chapter 01
  71. 00:08:48.402                             : en:Chapter 02
  72. 00:16:15.891                             : en:Chapter 03
  73. 00:24:13.201                             : en:Chapter 04
  74. 00:31:44.736                             : en:Chapter 05
  75. 00:40:14.995                             : en:Chapter 06
  76. 00:45:13.877                             : en:Chapter 07
  77. 00:50:30.360                             : en:Chapter 08
  78. 00:54:56.960                             : en:Chapter 09
  79. 01:03:42.235                             : en:Chapter 10
  80. 01:11:41.630                             : en:Chapter 11
复制代码






                                       
                                       

                                       
                                       
                                       




回复

使用道具 举报

懒得打字嘛,点击右侧快捷回复 【右侧内容,后台自定义】
您需要登录后才可以回帖 登录 | 立即加入

本版积分规则

Archiver| |网站地图

Copyright © 2024 Comsenz Inc. Powered by 蓝光电影网

本站内容由用户自主分享和转载自互联网,转载目的在于传递更多信息,并不代表本网赞同其观点和对其真实性负责。

如有侵权、违反国家法律政策行为,请联系我们,我们会第一时间及时清除和处理!

举报反馈邮箱:4k1080.com@gmail.com

快速回复 返回顶部 返回列表